  0
SECTION
  2
HEADER
  9
$ACADVER
  1
AC1021
  9
$ACADMAINTVER
 70
    25
  9
$DWGCODEPAGE
  3
ANSI_1252
  9
$LASTSAVEDBY
  1
pspoetzl
  9
$INSBASE
 10
0.0
 20
0.0
 30
0.0
  9
$EXTMIN
 10
-0.206362725450937
 20
0.0654709418837496
 30
-0.0000000000017476
  9
$EXTMAX
 10
420.2063627254508
 20
297.2380761523045
 30
0.0
  9
$LIMMIN
 10
0.0
 20
0.0
  9
$LIMMAX
 10
420.0
 20
297.0
  9
$ORTHOMODE
 70
     0
  9
$REGENMODE
 70
     1
  9
$FILLMODE
 70
     1
  9
$QTEXTMODE
 70
     0
  9
$MIRRTEXT
 70
     1
  9
$LTSCALE
 40
1.0
  9
$ATTMODE
 70
     1
  9
$TEXTSIZE
 40
3.5
  9
$TRACEWID
 40
1.0
  9
$TEXTSTYLE
  7
Standard
  9
$CLAYER
  8
0
  9
$CELTYPE
  6
ByLayer
  9
$CECOLOR
 62
   256
  9
$CELTSCALE
 40
1.0
  9
$DISPSILH
 70
     0
  9
$DIMSCALE
 40
1.0
  9
$DIMASZ
 40
3.8
  9
$DIMEXO
 40
1.0
  9
$DIMDLI
 40
3.75
  9
$DIMRND
 40
0.0
  9
$DIMDLE
 40
0.0
  9
$DIMEXE
 40
2.0
  9
$DIMTP
 40
0.0
  9
$DIMTM
 40
0.0
  9
$DIMTXT
 40
3.5
  9
$DIMCEN
 40
2.5
  9
$DIMTSZ
 40
0.0
  9
$DIMTOL
 70
     0
  9
$DIMLIM
 70
     0
  9
$DIMTIH
 70
     1
  9
$DIMTOH
 70
     1
  9
$DIMSE1
 70
     0
  9
$DIMSE2
 70
     0
  9
$DIMTAD
 70
     1
  9
$DIMZIN
 70
     0
  9
$DIMBLK
  1

  9
$DIMASO
 70
     1
  9
$DIMSHO
 70
     1
  9
$DIMPOST
  1

  9
$DIMAPOST
  1

  9
$DIMALT
 70
     0
  9
$DIMALTD
 70
     3
  9
$DIMALTF
 40
0.0393700787401575
  9
$DIMLFAC
 40
1.0
  9
$DIMTOFL
 70
     1
  9
$DIMTVP
 40
0.0
  9
$DIMTIX
 70
     0
  9
$DIMSOXD
 70
     0
  9
$DIMSAH
 70
     0
  9
$DIMBLK1
  1

  9
$DIMBLK2
  1

  9
$DIMSTYLE
  2
ISO-25
  9
$DIMCLRD
 70
     0
  9
$DIMCLRE
 70
     0
  9
$DIMCLRT
 70
     0
  9
$DIMTFAC
 40
1.0
  9
$DIMGAP
 40
3.0
  9
$DIMJUST
 70
     0
  9
$DIMSD1
 70
     0
  9
$DIMSD2
 70
     0
  9
$DIMTOLJ
 70
     0
  9
$DIMTZIN
 70
     0
  9
$DIMALTZ
 70
     0
  9
$DIMALTTZ
 70
     0
  9
$DIMUPT
 70
     0
  9
$DIMDEC
 70
     2
  9
$DIMTDEC
 70
     2
  9
$DIMALTU
 70
     2
  9
$DIMALTTD
 70
     3
  9
$DIMTXSTY
  7
Standard
  9
$DIMAUNIT
 70
     0
  9
$DIMADEC
 70
     0
  9
$DIMALTRND
 40
0.0
  9
$DIMAZIN
 70
     0
  9
$DIMDSEP
 70
    44
  9
$DIMATFIT
 70
     3
  9
$DIMFRAC
 70
     0
  9
$DIMLDRBLK
  1

  9
$DIMLUNIT
 70
     2
  9
$DIMLWD
 70
    -2
  9
$DIMLWE
 70
    -2
  9
$DIMTMOVE
 70
     0
  9
$DIMFXL
 40
1.0
  9
$DIMFXLON
 70
     0
  9
$DIMJOGANG
 40
0.7853981633974483
  9
$DIMTFILL
 70
     0
  9
$DIMTFILLCLR
 70
     0
  9
$DIMARCSYM
 70
     0
  9
$DIMLTYPE
  6

  9
$DIMLTEX1
  6

  9
$DIMLTEX2
  6

  9
$LUNITS
 70
     2
  9
$LUPREC
 70
     2
  9
$SKETCHINC
 40
1.0
  9
$FILLETRAD
 40
10.0
  9
$AUNITS
 70
     0
  9
$AUPREC
 70
     0
  9
$MENU
  1
.
  9
$ELEVATION
 40
0.0
  9
$PELEVATION
 40
0.0
  9
$THICKNESS
 40
0.0
  9
$LIMCHECK
 70
     0
  9
$CHAMFERA
 40
10.0
  9
$CHAMFERB
 40
10.0
  9
$CHAMFERC
 40
20.0
  9
$CHAMFERD
 40
0.0
  9
$SKPOLY
 70
     0
  9
$TDCREATE
 40
2453353.800459155
  9
$TDUCREATE
 40
2453353.717125822
  9
$TDUPDATE
 40
2455320.69459397
  9
$TDUUPDATE
 40
2455320.611260637
  9
$TDINDWG
 40
0.0437152662
  9
$TDUSRTIMER
 40
0.0437152662
  9
$USRTIMER
 70
     1
  9
$ANGBASE
 50
0.0
  9
$ANGDIR
 70
     0
  9
$PDMODE
 70
     0
  9
$PDSIZE
 40
-1.0
  9
$PLINEWID
 40
0.0
  9
$SPLFRAME
 70
     0
  9
$SPLINETYPE
 70
     6
  9
$SPLINESEGS
 70
     8
  9
$HANDSEED
  5
262
  9
$SURFTAB1
 70
     6
  9
$SURFTAB2
 70
     6
  9
$SURFTYPE
 70
     6
  9
$SURFU
 70
     6
  9
$SURFV
 70
     6
  9
$UCSBASE
  2

  9
$UCSNAME
  2

  9
$UCSORG
 10
0.0
 20
0.0
 30
0.0
  9
$UCSXDIR
 10
1.0
 20
0.0
 30
0.0
  9
$UCSYDIR
 10
0.0
 20
1.0
 30
0.0
  9
$UCSORTHOREF
  2

  9
$UCSORTHOVIEW
 70
     0
  9
$UCSORGTOP
 10
0.0
 20
0.0
 30
0.0
  9
$UCSORGBOTTOM
 10
0.0
 20
0.0
 30
0.0
  9
$UCSORGLEFT
 10
0.0
 20
0.0
 30
0.0
  9
$UCSORGRIGHT
 10
0.0
 20
0.0
 30
0.0
  9
$UCSORGFRONT
 10
0.0
 20
0.0
 30
0.0
  9
$UCSORGBACK
 10
0.0
 20
0.0
 30
0.0
  9
$PUCSBASE
  2

  9
$PUCSNAME
  2

  9
$PUCSORG
 10
0.0
 20
0.0
 30
0.0
  9
$PUCSXDIR
 10
1.0
 20
0.0
 30
0.0
  9
$PUCSYDIR
 10
0.0
 20
1.0
 30
0.0
  9
$PUCSORTHOREF
  2

  9
$PUCSORTHOVIEW
 70
     0
  9
$PUCSORGTOP
 10
0.0
 20
0.0
 30
0.0
  9
$PUCSORGBOTTOM
 10
0.0
 20
0.0
 30
0.0
  9
$PUCSORGLEFT
 10
0.0
 20
0.0
 30
0.0
  9
$PUCSORGRIGHT
 10
0.0
 20
0.0
 30
0.0
  9
$PUCSORGFRONT
 10
0.0
 20
0.0
 30
0.0
  9
$PUCSORGBACK
 10
0.0
 20
0.0
 30
0.0
  9
$USERI1
 70
     0
  9
$USERI2
 70
     0
  9
$USERI3
 70
     0
  9
$USERI4
 70
     0
  9
$USERI5
 70
     0
  9
$USERR1
 40
0.0
  9
$USERR2
 40
0.0
  9
$USERR3
 40
0.0
  9
$USERR4
 40
0.0
  9
$USERR5
 40
0.0
  9
$WORLDVIEW
 70
     1
  9
$SHADEDGE
 70
     3
  9
$SHADEDIF
 70
    70
  9
$TILEMODE
 70
     1
  9
$MAXACTVP
 70
    64
  9
$PINSBASE
 10
0.0
 20
0.0
 30
0.0
  9
$PLIMCHECK
 70
     0
  9
$PEXTMIN
 10
1.000000000000000E+20
 20
1.000000000000000E+20
 30
1.000000000000000E+20
  9
$PEXTMAX
 10
-1.000000000000000E+20
 20
-1.000000000000000E+20
 30
-1.000000000000000E+20
  9
$PLIMMIN
 10
0.0
 20
0.0
  9
$PLIMMAX
 10
420.0
 20
297.0
  9
$UNITMODE
 70
     0
  9
$VISRETAIN
 70
     1
  9
$PLINEGEN
 70
     0
  9
$PSLTSCALE
 70
     1
  9
$TREEDEPTH
 70
  3020
  9
$CMLSTYLE
  2
Standard
  9
$CMLJUST
 70
     0
  9
$CMLSCALE
 40
20.0
  9
$PROXYGRAPHICS
 70
     1
  9
$MEASUREMENT
 70
     1
  9
$CELWEIGHT
370
    -1
  9
$ENDCAPS
280
     0
  9
$JOINSTYLE
280
     0
  9
$LWDISPLAY
290
     1
  9
$INSUNITS
 70
     4
  9
$HYPERLINKBASE
  1

  9
$STYLESHEET
  1

  9
$XEDIT
290
     0
  9
$CEPSNTYPE
380
     0
  9
$PSTYLEMODE
290
     1
  9
$FINGERPRINTGUID
  2
{3D11487A-4A33-44BA-ADC6-923981B957CF}
  9
$VERSIONGUID
  2
{FAEB1C32-E019-11D5-929B-00C0DF256EC4}
  9
$EXTNAMES
290
     1
  9
$PSVPSCALE
 40
0.0
  9
$OLESTARTUP
290
     0
  9
$SORTENTS
280
   127
  9
$INDEXCTL
280
     0
  9
$HIDETEXT
280
     1
  9
$XCLIPFRAME
290
     0
  9
$HALOGAP
280
     0
  9
$OBSCOLOR
 70
   257
  9
$OBSLTYPE
280
     0
  9
$INTERSECTIONDISPLAY
280
     0
  9
$INTERSECTIONCOLOR
 70
   257
  9
$DIMASSOC
280
     2
  9
$PROJECTNAME
  1

  9
$CAMERADISPLAY
290
     0
  9
$LENSLENGTH
 40
50.0
  9
$CAMERAHEIGHT
 40
0.0
  9
$STEPSPERSEC
 40
2.0
  9
$STEPSIZE
 40
6.0
  9
$3DDWFPREC
 40
2.0
  9
$PSOLWIDTH
 40
0.25
  9
$PSOLHEIGHT
 40
4.0
  9
$LOFTANG1
 40
1.570796326794897
  9
$LOFTANG2
 40
1.570796326794897
  9
$LOFTMAG1
 40
0.0
  9
$LOFTMAG2
 40
0.0
  9
$LOFTPARAM
 70
     7
  9
$LOFTNORMALS
280
     1
  9
$LATITUDE
 40
37.795
  9
$LONGITUDE
 40
-122.394
  9
$NORTHDIRECTION
 40
0.0
  9
$TIMEZONE
 70
 -8000
  9
$LIGHTGLYPHDISPLAY
280
     1
  9
$TILEMODELIGHTSYNCH
280
     1
  9
$SOLIDHIST
280
     1
  9
$SHOWHIST
280
     1
  9
$DWFFRAME
280
     2
  9
$DGNFRAME
280
     2
  9
$REALWORLDSCALE
290
     1
  9
$INTERFERECOLOR
 62
   256
  9
$CSHADOW
280
     0
  9
$SHADOWPLANELOCATION
 40
0.0
  0
ENDSEC
  0
SECTION
  2
CLASSES
  0
CLASS
  1
ACDBDICTIONARYWDFLT
  2
AcDbDictionaryWithDefault
  3
ObjectDBX Classes
 90
        0
 91
        4
280
     0
281
     0
  0
CLASS
  1
ACDBPLACEHOLDER
  2
AcDbPlaceHolder
  3
ObjectDBX Classes
 90
        0
 91
        1
280
     0
281
     0
  0
CLASS
  1
LAYOUT
  2
AcDbLayout
  3
ObjectDBX Classes
 90
        0
 91
        1
280
     0
281
     0
  0
CLASS
  1
DICTIONARYVAR
  2
AcDbDictionaryVar
  3
ObjectDBX Classes
 90
        0
 91
        4
280
     0
281
     0
  0
CLASS
  1
TABLESTYLE
  2
AcDbTableStyle
  3
ObjectDBX Classes
 90
     4095
 91
        4
280
     0
281
     0
  0
CLASS
  1
SCALE
  2
AcDbScale
  3
ObjectDBX Classes
 90
     1153
 91
        4
280
     0
281
     0
  0
CLASS
  1
VISUALSTYLE
  2
AcDbVisualStyle
  3
ObjectDBX Classes
 90
     4095
 91
        4
280
     0
281
     0
  0
ENDSEC
  0
SECTION
  2
TABLES
  0
TABLE
  2
VPORT
  5
8
330
0
100
AcDbSymbolTable
 70
     2
  0
VPORT
  5
97
330
8
100
AcDbSymbolTableRecord
100
AcDbViewportTableRecord
  2
*Active
 70
     0
 10
0.0
 20
0.0
 11
1.0
 21
1.0
 12
210.0
 22
148.5
 13
0.0
 23
0.0
 14
10.0
 24
10.0
 15
10.0
 25
10.0
 16
0.0
 26
0.0
 36
1.0
 17
0.0
 27
0.0
 37
0.0
 40
297.0
 41
1.414141414141414
 42
50.0
 43
0.0
 44
0.0
 50
0.0
 51
0.0
 71
    16
 72
  2000
 73
     1
 74
     3
 75
     0
 76
     0
 77
     0
 78
     0
281
     0
 65
     0
110
0.0
120
0.0
130
0.0
111
1.0
121
0.0
131
0.0
112
0.0
122
1.0
132
0.0
 79
     0
146
0.0
 60
     3
 61
     5
292
     1
282
     1
141
0.0
142
0.0
 63
   256
  0
ENDTAB
  0
TABLE
  2
LTYPE
  5
5
330
0
100
AcDbSymbolTable
 70
     8
  0
LTYPE
  5
14
330
5
100
AcDbSymbolTableRecord
100
AcDbLinetypeTableRecord
  2
ByBlock
 70
     0
  3

 72
    65
 73
     0
 40
0.0
  0
LTYPE
  5
15
330
5
100
AcDbSymbolTableRecord
100
AcDbLinetypeTableRecord
  2
ByLayer
 70
     0
  3

 72
    65
 73
     0
 40
0.0
  0
LTYPE
  5
16
330
5
100
AcDbSymbolTableRecord
100
AcDbLinetypeTableRecord
  2
Continuous
 70
     0
  3
Solid line
 72
    65
 73
     0
 40
0.0
  0
LTYPE
  5
23C
330
5
100
AcDbSymbolTableRecord
100
AcDbLinetypeTableRecord
  2
SLD-Durchgehend
 70
     0
  3
SolidWorks Line Style
 72
    65
 73
     0
 40
0.0
  0
LTYPE
  5
23D
330
5
100
AcDbSymbolTableRecord
100
AcDbLinetypeTableRecord
  2
SLD-Gestrichelt
 70
     0
  3
SolidWorks Line Style
 72
    65
 73
     2
 40
1.905
 49
1.27
 74
     4
 75
     0
340
0
 46
1.0
 50
0.0
 44
0.0
 45
0.0
 49
-0.635
 74
     4
 75
     0
340
0
 46
1.0
 50
0.0
 44
0.0
 45
0.0
  0
LTYPE
  5
23E
330
5
100
AcDbSymbolTableRecord
100
AcDbLinetypeTableRecord
  2
SLD-Phantom
 70
     0
  3
SolidWorks Line Style
 72
    65
 73
     6
 40
12.7
 49
6.35
 74
     4
 75
     0
340
0
 46
1.0
 50
0.0
 44
0.0
 45
0.0
 49
-1.27
 74
     4
 75
     0
340
0
 46
1.0
 50
0.0
 44
0.0
 45
0.0
 49
1.27
 74
     4
 75
     0
340
0
 46
1.0
 50
0.0
 44
0.0
 45
0.0
 49
-1.27
 74
     4
 75
     0
340
0
 46
1.0
 50
0.0
 44
0.0
 45
0.0
 49
1.27
 74
     4
 75
     0
340
0
 46
1.0
 50
0.0
 44
0.0
 45
0.0
 49
-1.27
 74
     4
 75
     0
340
0
 46
1.0
 50
0.0
 44
0.0
 45
0.0
  0
LTYPE
  5
23F
330
5
100
AcDbSymbolTableRecord
100
AcDbLinetypeTableRecord
  2
SLD-Kette
 70
     0
  3
SolidWorks Line Style
 72
    65
 73
     4
 40
10.16
 49
6.35
 74
     4
 75
     0
340
0
 46
1.0
 50
0.0
 44
0.0
 45
0.0
 49
-1.27
 74
     4
 75
     0
340
0
 46
1.0
 50
0.0
 44
0.0
 45
0.0
 49
1.27
 74
     4
 75
     0
340
0
 46
1.0
 50
0.0
 44
0.0
 45
0.0
 49
-1.27
 74
     4
 75
     0
340
0
 46
1.0
 50
0.0
 44
0.0
 45
0.0
  0
LTYPE
  5
240
330
5
100
AcDbSymbolTableRecord
100
AcDbLinetypeTableRecord
  2
SLD-Punktstrich
 70
     0
  3
SolidWorks Line Style
 72
    65
 73
     4
 40
19.05
 49
15.24
 74
     4
 75
     0
340
0
 46
1.0
 50
0.0
 44
0.0
 45
0.0
 49
-1.27
 74
     4
 75
     0
340
0
 46
1.0
 50
0.0
 44
0.0
 45
0.0
 49
1.27
 74
     4
 75
     0
340
0
 46
1.0
 50
0.0
 44
0.0
 45
0.0
 49
-1.27
 74
     4
 75
     0
340
0
 46
1.0
 50
0.0
 44
0.0
 45
0.0
  0
LTYPE
  5
241
330
5
100
AcDbSymbolTableRecord
100
AcDbLinetypeTableRecord
  2
SLD-Naht
 70
     0
  3
SolidWorks Line Style
 72
    65
 73
     2
 40
0.635
 49
0.0
 74
     4
 75
     0
340
0
 46
1.0
 50
0.0
 44
0.0
 45
0.0
 49
-0.635
 74
     4
 75
     0
340
0
 46
1.0
 50
0.0
 44
0.0
 45
0.0
  0
LTYPE
  5
242
330
5
100
AcDbSymbolTableRecord
100
AcDbLinetypeTableRecord
  2
SLD-Dicke-Dünne-Kette
 70
     0
  3
SolidWorks Line Style
 72
    65
 73
     4
 40
10.16
 49
6.35
 74
     4
 75
     0
340
0
 46
1.0
 50
0.0
 44
0.0
 45
0.0
 49
-1.27
 74
     4
 75
     0
340
0
 46
1.0
 50
0.0
 44
0.0
 45
0.0
 49
1.27
 74
     4
 75
     0
340
0
 46
1.0
 50
0.0
 44
0.0
 45
0.0
 49
-1.27
 74
     4
 75
     0
340
0
 46
1.0
 50
0.0
 44
0.0
 45
0.0
  0
ENDTAB
  0
TABLE
  2
LAYER
  5
2
330
0
100
AcDbSymbolTable
 70
    12
  0
LAYER
  5
10
330
2
100
AcDbSymbolTableRecord
100
AcDbLayerTableRecord
  2
0
 70
     0
 62
     7
  6
Continuous
370
    -3
390
F
347
0
  0
LAYER
  5
42
330
2
100
AcDbSymbolTableRecord
100
AcDbLayerTableRecord
  2
SLD-DEFPOINTS
 70
     0
 62
     7
  6
Continuous
370
    -3
390
F
347
0
  0
LAYER
  5
43
330
2
100
AcDbSymbolTableRecord
100
AcDbLayerTableRecord
  2
BEMASSUNG
 70
     0
 62
     3
  6
SLD-Durchgehend
370
    -3
390
F
347
0
  0
LAYER
  5
44
330
2
100
AcDbSymbolTableRecord
100
AcDbLayerTableRecord
  2
VERDECKT
 70
     0
 62
     6
  6
SLD-Gestrichelt
370
    -3
390
F
347
0
  0
LAYER
  5
45
330
2
100
AcDbSymbolTableRecord
100
AcDbLayerTableRecord
  2
MITTELLINIEN
 70
     0
 62
     1
  6
SLD-Punktstrich
370
    -3
390
F
347
0
  0
LAYER
  5
46
330
2
100
AcDbSymbolTableRecord
100
AcDbLayerTableRecord
  2
SCHRAFFUR
 70
     0
 62
     7
  6
SLD-Durchgehend
370
    -3
390
F
347
0
  0
LAYER
  5
47
330
2
100
AcDbSymbolTableRecord
100
AcDbLayerTableRecord
  2
PHANTOM
 70
     0
 62
     4
  6
SLD-Durchgehend
370
    -3
390
F
347
0
  0
LAYER
  5
48
330
2
100
AcDbSymbolTableRecord
100
AcDbLayerTableRecord
  2
TANGENTIALE
 70
     0
 62
     4
  6
SLD-Durchgehend
370
    -3
390
F
347
0
  0
LAYER
  5
49
330
2
100
AcDbSymbolTableRecord
100
AcDbLayerTableRecord
  2
SICHTBARE
 70
     0
 62
     7
  6
SLD-Durchgehend
370
    -3
390
F
347
0
  0
LAYER
  5
4A
330
2
100
AcDbSymbolTableRecord
100
AcDbLayerTableRecord
  2
KONTUR
 70
     0
 62
     7
  6
SLD-Durchgehend
370
    -3
390
F
347
0
  0
LAYER
  5
4B
330
2
100
AcDbSymbolTableRecord
100
AcDbLayerTableRecord
  2
TEXT
 70
     0
 62
     7
  6
SLD-Durchgehend
370
    -3
390
F
347
0
  0
LAYER
  5
4C
330
2
100
AcDbSymbolTableRecord
100
AcDbLayerTableRecord
  2
ZEICHNUNG
 70
     0
 62
     7
  6
SLD-Punktstrich
370
    -3
390
F
347
0
  0
ENDTAB
  0
TABLE
  2
STYLE
  5
3
330
0
100
AcDbSymbolTable
 70
     4
  0
STYLE
  5
11
330
3
100
AcDbSymbolTableRecord
100
AcDbTextStyleTableRecord
  2
Standard
 70
     0
 40
0.0
 41
1.0
 50
0.0
 71
     0
 42
2.5
  3
ARIAL.TTF
  4

1001
ACAD
1000
ARIAL
1071
       34
  0
STYLE
  5
12E
330
3
100
AcDbSymbolTableRecord
100
AcDbTextStyleTableRecord
  2
SLDTEXTSTYLE0
 70
     0
 40
0.0
 41
0.948
 50
0.0
 71
     0
 42
0.2
  3
ARIAL.TTF
  4

1001
ACAD
1000
Arial
1071
      290
  0
STYLE
  5
164
330
3
100
AcDbSymbolTableRecord
100
AcDbTextStyleTableRecord
  2
SLDTEXTSTYLE1
 70
     0
 40
0.0
 41
0.948
 50
0.0
 71
     0
 42
0.2
  3
ARIAL.TTF
  4

1001
ACAD
1000
Arial
1071
 33554722
  0
STYLE
  5
174
330
3
100
AcDbSymbolTableRecord
100
AcDbTextStyleTableRecord
  2
SLDTEXTSTYLE2
 70
     0
 40
0.0
 41
1.0
 50
0.0
 71
     0
 42
0.2
  3
CALIBRI.TTF
  4

1001
ACAD
1000
Calibri
1071
      290
  0
ENDTAB
  0
TABLE
  2
VIEW
  5
6
330
0
100
AcDbSymbolTable
 70
     0
  0
ENDTAB
  0
TABLE
  2
UCS
  5
7
330
0
100
AcDbSymbolTable
 70
     0
  0
ENDTAB
  0
TABLE
  2
APPID
  5
9
330
0
100
AcDbSymbolTable
 70
     1
  0
APPID
  5
12
330
9
100
AcDbSymbolTableRecord
100
AcDbRegAppTableRecord
  2
ACAD
 70
     0
  0
ENDTAB
  0
TABLE
  2
DIMSTYLE
  5
A
330
0
100
AcDbSymbolTable
 70
     5
100
AcDbDimStyleTable
  0
DIMSTYLE
105
27
330
A
100
AcDbSymbolTableRecord
100
AcDbDimStyleTableRecord
  2
Standard
 70
     0
278
     0
340
11
  0
DIMSTYLE
105
1E6
330
A
100
AcDbSymbolTableRecord
100
AcDbDimStyleTableRecord
  2
ISO-25
 70
     0
 41
2.5
 42
0.625
 43
3.75
 44
1.25
 73
     0
 74
     0
 77
     1
 78
     8
140
2.5
141
2.5
143
0.03937007874016
147
0.625
171
     3
172
     1
271
     2
272
     2
274
     3
278
    44
283
     0
284
     8
340
11
  0
DIMSTYLE
105
12F
102
{ACAD_REACTORS
330
12D
330
139
330
150
330
15A
102
}
330
A
100
AcDbSymbolTableRecord
100
AcDbDimStyleTableRecord
  2
SLDDIMSTYLE0
 70
     0
 41
3.8
 44
0.0
 45
0.000000001
 73
     0
 74
     0
 77
     2
 78
    12
140
3.5
147
0.875
173
     1
271
     2
272
     1
284
    12
340
12E
  0
DIMSTYLE
105
144
102
{ACAD_REACTORS
330
143
102
}
330
A
100
AcDbSymbolTableRecord
100
AcDbDimStyleTableRecord
  2
SLDDIMSTYLE1
 70
     0
 41
3.8
 44
0.0
 45
0.000000001
 73
     0
 74
     0
 77
     2
 78
    12
140
3.5
147
0.875
173
     1
271
     2
272
     1
284
    12
340
12E
  0
DIMSTYLE
105
171
330
A
100
AcDbSymbolTableRecord
100
AcDbDimStyleTableRecord
  2
SLDDIMSTYLE2
 70
     0
 41
3.8
 44
0.0
 45
0.000000001
146
3.8
147
0.0
173
     1
271
     0
272
     0
340
11
  0
ENDTAB
  0
TABLE
  2
BLOCK_RECORD
  5
1
330
0
100
AcDbSymbolTable
 70
    13
  0
BLOCK_RECORD
  5
1F
102
{ACAD_XDICTIONARY
360
260
102
}
330
1
100
AcDbSymbolTableRecord
100
AcDbBlockTableRecord
  2
*Model_Space
340
22
 70
     0
280
     1
281
     0
  0
BLOCK_RECORD
  5
73
330
1
100
AcDbSymbolTableRecord
100
AcDbBlockTableRecord
  2
*Paper_Space
340
74
 70
     0
280
     1
281
     0
  0
BLOCK_RECORD
  5
23
330
1
100
AcDbSymbolTableRecord
100
AcDbBlockTableRecord
  2
*Paper_Space0
340
26
 70
     0
280
     1
281
     0
  0
BLOCK_RECORD
  5
130
330
1
100
AcDbSymbolTableRecord
100
AcDbBlockTableRecord
  2
*D1
340
0
 70
     0
280
     1
281
     0
  0
BLOCK_RECORD
  5
13A
330
1
100
AcDbSymbolTableRecord
100
AcDbBlockTableRecord
  2
*D2
340
0
 70
     0
280
     1
281
     0
  0
BLOCK_RECORD
  5
145
330
1
100
AcDbSymbolTableRecord
100
AcDbBlockTableRecord
  2
*D3
340
0
 70
     0
280
     1
281
     0
  0
BLOCK_RECORD
  5
151
330
1
100
AcDbSymbolTableRecord
100
AcDbBlockTableRecord
  2
*D4
340
0
 70
     0
280
     1
281
     0
  0
BLOCK_RECORD
  5
15B
330
1
100
AcDbSymbolTableRecord
100
AcDbBlockTableRecord
  2
*D5
340
0
 70
     0
280
     1
281
     0
  0
BLOCK_RECORD
  5
166
330
1
100
AcDbSymbolTableRecord
100
AcDbBlockTableRecord
  2
SW_NOTE_0
340
0
102
{BLKREFS
331
16C
102
}
 70
     0
280
     1
281
     0
  0
BLOCK_RECORD
  5
176
330
1
100
AcDbSymbolTableRecord
100
AcDbBlockTableRecord
  2
SW_CENTERMARKSYMBOL_0
340
0
102
{BLKREFS
331
181
102
}
 70
     0
280
     1
281
     0
  0
BLOCK_RECORD
  5
182
330
1
100
AcDbSymbolTableRecord
100
AcDbBlockTableRecord
  2
SW_CENTERMARKSYMBOL_1
340
0
102
{BLKREFS
331
193
102
}
 70
     0
280
     1
281
     0
  0
BLOCK_RECORD
  5
194
330
1
100
AcDbSymbolTableRecord
100
AcDbBlockTableRecord
  2
SW_CENTERMARKSYMBOL_2
340
0
102
{BLKREFS
331
19F
102
}
 70
     0
280
     1
281
     0
  0
BLOCK_RECORD
  5
1A0
330
1
100
AcDbSymbolTableRecord
100
AcDbBlockTableRecord
  2
SW_DOWELSYMBOL_0
340
0
102
{BLKREFS
331
1A6
102
}
 70
     0
280
     1
281
     0
  0
BLOCK_RECORD
  5
1A7
330
1
100
AcDbSymbolTableRecord
100
AcDbBlockTableRecord
  2
SW_DOWELSYMBOL_1
340
0
102
{BLKREFS
331
1AD
102
}
 70
     0
280
     1
281
     0
  0
BLOCK_RECORD
  5
1AE
330
1
100
AcDbSymbolTableRecord
100
AcDbBlockTableRecord
  2
SW_DOWELSYMBOL_2
340
0
102
{BLKREFS
331
1B4
102
}
 70
     0
280
     1
281
     0
  0
ENDTAB
  0
ENDSEC
  0
SECTION
  2
BLOCKS
  0
BLOCK
  5
20
330
1F
100
AcDbEntity
  8
0
100
AcDbBlockBegin
  2
*Model_Space
 70
     0
 10
0.0
 20
0.0
 30
0.0
  3
*Model_Space
  1

  0
ENDBLK
  5
21
330
1F
100
AcDbEntity
  8
0
100
AcDbBlockEnd
  0
BLOCK
  5
75
330
73
100
AcDbEntity
 67
     1
  8
0
100
AcDbBlockBegin
  2
*Paper_Space
 70
     0
 10
0.0
 20
0.0
 30
0.0
  3
*Paper_Space
  1

  0
ENDBLK
  5
76
330
73
100
AcDbEntity
 67
     1
  8
0
100
AcDbBlockEnd
  0
BLOCK
  5
246
330
23
100
AcDbEntity
  8
0
100
AcDbBlockBegin
  2
*Paper_Space0
 70
     0
 10
0.0
 20
0.0
 30
0.0
  3
*Paper_Space0
  1

  0
ENDBLK
  5
247
330
23
100
AcDbEntity
  8
0
100
AcDbBlockEnd
  0
BLOCK
  5
248
330
130
100
AcDbEntity
  8
0
100
AcDbBlockBegin
  2
*D1
 70
     1
 10
0.0
 20
0.0
 30
0.0
  3
*D1
  1

  0
SOLID
  5
133
330
130
100
AcDbEntity
  8
BEMASSUNG
100
AcDbTrace
 10
67.48463927855705
 20
81.91950936704309
 30
0.0
 11
68.13463927855706
 21
85.71950936704309
 31
0.0
 12
66.83463927855705
 22
85.71950936704309
 32
0.0
 13
66.83463927855705
 23
85.71950936704309
 33
0.0
  0
SOLID
  5
134
330
130
100
AcDbEntity
  8
BEMASSUNG
100
AcDbTrace
 10
67.48463927855705
 20
226.9195093670431
 30
0.0
 11
66.83463927855705
 21
223.1195093670431
 31
0.0
 12
68.13463927855706
 22
223.1195093670431
 32
0.0
 13
68.13463927855706
 23
223.1195093670431
 33
0.0
  0
LINE
  5
135
330
130
100
AcDbEntity
  8
BEMASSUNG
100
AcDbLine
 10
86.76462403765447
 20
81.91950936704309
 30
0.0
 11
65.48463927855705
 21
81.91950936704309
 31
0.0
  0
LINE
  5
136
330
130
100
AcDbEntity
  8
BEMASSUNG
100
AcDbLine
 10
86.76462403765447
 20
226.9195093670431
 30
0.0
 11
65.48463927855705
 21
226.9195093670431
 31
0.0
  0
LINE
  5
137
330
130
100
AcDbEntity
  8
BEMASSUNG
100
AcDbLine
 10
67.48463927855705
 20
81.91950936704309
 30
0.0
 11
67.48463927855705
 21
226.9195093670431
 31
0.0
  0
MTEXT
  5
138
330
130
100
AcDbEntity
  8
BEMASSUNG
100
AcDbMText
 10
62.97290195652452
 20
150.4096522528146
 30
-0.000000000001071
 40
3.5
 41
0.0
 46
0.0
 71
     1
 72
     1
  1
145
  7
SLDTEXTSTYLE0
 11
6.123233995736766E-17
 21
1.0
 31
0.0
 73
     1
 44
1.0
  0
ENDBLK
  5
249
330
130
100
AcDbEntity
  8
0
100
AcDbBlockEnd
  0
BLOCK
  5
24A
330
13A
100
AcDbEntity
  8
0
100
AcDbBlockBegin
  2
*D2
 70
     1
 10
0.0
 20
0.0
 30
0.0
  3
*D2
  1

  0
SOLID
  5
13D
330
13A
100
AcDbEntity
  8
BEMASSUNG
100
AcDbTrace
 10
87.76462403765447
 20
247.2933301635117
 30
0.0
 11
91.56462403765447
 21
246.6433301635116
 31
0.0
 12
91.56462403765447
 22
247.9433301635117
 32
0.0
 13
91.56462403765447
 23
247.9433301635117
 33
0.0
  0
SOLID
  5
13E
330
13A
100
AcDbEntity
  8
BEMASSUNG
100
AcDbTrace
 10
322.7646240376544
 20
247.2933301635117
 30
0.0
 11
318.9646240376544
 21
247.9433301635117
 31
0.0
 12
318.9646240376544
 22
246.6433301635116
 32
0.0
 13
318.9646240376544
 23
246.6433301635116
 33
0.0
  0
LINE
  5
13F
330
13A
100
AcDbEntity
  8
BEMASSUNG
100
AcDbLine
 10
87.76462403765447
 20
227.9195093670431
 30
0.0
 11
87.76462403765447
 21
249.2933301635117
 31
0.0
  0
LINE
  5
140
330
13A
100
AcDbEntity
  8
BEMASSUNG
100
AcDbLine
 10
322.7646240376544
 20
227.9195093670431
 30
0.0
 11
322.7646240376544
 21
249.2933301635117
 31
0.0
  0
LINE
  5
141
330
13A
100
AcDbEntity
  8
BEMASSUNG
100
AcDbLine
 10
87.76462403765447
 20
247.2933301635117
 30
0.0
 11
322.7646240376544
 21
247.2933301635117
 31
0.0
  0
MTEXT
  5
142
330
13A
100
AcDbEntity
  8
BEMASSUNG
100
AcDbMText
 10
201.254766923426
 20
251.8050674855442
 30
-0.0000000000017476
 40
3.5
 41
0.0
 46
0.0
 71
     1
 72
     1
  1
235
  7
SLDTEXTSTYLE0
 73
     1
 44
1.0
  0
ENDBLK
  5
24B
330
13A
100
AcDbEntity
  8
0
100
AcDbBlockEnd
  0
BLOCK
  5
24C
330
145
100
AcDbEntity
  8
0
100
AcDbBlockBegin
  2
*D3
 70
     1
 10
0.0
 20
0.0
 30
0.0
  3
*D3
  1

  0
SOLID
  5
148
330
145
100
AcDbEntity
  8
BEMASSUNG
100
AcDbTrace
 10
99.7646240376545
 20
239.2605811623246
 30
0.0
 11
103.5646240376545
 21
238.6105811623246
 31
0.0
 12
103.5646240376545
 22
239.9105811623246
 32
0.0
 13
103.5646240376545
 23
239.9105811623246
 33
0.0
  0
SOLID
  5
149
330
145
100
AcDbEntity
  8
BEMASSUNG
100
AcDbTrace
 10
87.76462403765449
 20
239.2605811623246
 30
0.0
 11
83.96462403765449
 21
239.9105811623246
 31
0.0
 12
83.96462403765449
 22
238.6105811623246
 32
0.0
 13
83.96462403765449
 23
238.6105811623246
 33
0.0
  0
LINE
  5
14A
330
145
100
AcDbEntity
  8
BEMASSUNG
100
AcDbLine
 10
99.76462403765446
 20
197.9195093670431
 30
0.0
 11
99.7646240376545
 21
241.2605811623246
 31
0.0
  0
LINE
  5
14B
330
145
100
AcDbEntity
  8
BEMASSUNG
100
AcDbLine
 10
87.76462403765447
 20
227.9195093670431
 30
0.0
 11
87.76462403765449
 21
241.2605811623246
 31
0.0
  0
LINE
  5
14C
330
145
100
AcDbEntity
  8
BEMASSUNG
100
AcDbLine
 10
99.7646240376545
 20
239.2605811623246
 30
0.0
 11
106.7646240376545
 21
239.2605811623246
 31
0.0
  0
LINE
  5
14D
330
145
100
AcDbEntity
  8
BEMASSUNG
100
AcDbLine
 10
99.7646240376545
 20
239.2605811623246
 30
0.0
 11
87.76462403765449
 21
239.2605811623246
 31
0.0
  0
LINE
  5
14E
330
145
100
AcDbEntity
  8
BEMASSUNG
100
AcDbLine
 10
87.76462403765449
 20
239.2605811623246
 30
0.0
 11
80.76462403765449
 21
239.2605811623246
 31
0.0
  0
MTEXT
  5
14F
330
145
100
AcDbEntity
  8
BEMASSUNG
100
AcDbMText
 10
91.09189187332588
 20
243.7723184843571
 30
-0.0000000000016915
 40
3.5
 41
0.0
 46
0.0
 71
     1
 72
     1
  1
12
  7
SLDTEXTSTYLE0
 73
     1
 44
1.0
  0
ENDBLK
  5
24D
330
145
100
AcDbEntity
  8
0
100
AcDbBlockEnd
  0
BLOCK
  5
24E
330
151
100
AcDbEntity
  8
0
100
AcDbBlockBegin
  2
*D4
 70
     1
 10
0.0
 20
0.0
 30
0.0
  3
*D4
  1

  0
SOLID
  5
154
330
151
100
AcDbEntity
  8
BEMASSUNG
100
AcDbTrace
 10
99.76462403765446
 20
239.2605811623246
 30
0.0
 11
103.5646240376545
 21
238.6105811623246
 31
0.0
 12
103.5646240376545
 22
239.9105811623246
 32
0.0
 13
103.5646240376545
 23
239.9105811623246
 33
0.0
  0
SOLID
  5
155
330
151
100
AcDbEntity
  8
BEMASSUNG
100
AcDbTrace
 10
249.7646240376544
 20
239.2605811623246
 30
0.0
 11
245.9646240376544
 21
239.9105811623246
 31
0.0
 12
245.9646240376544
 22
238.6105811623246
 32
0.0
 13
245.9646240376544
 23
238.6105811623246
 33
0.0
  0
LINE
  5
156
330
151
100
AcDbEntity
  8
BEMASSUNG
100
AcDbLine
 10
99.76462403765446
 20
197.9195093670431
 30
0.0
 11
99.76462403765446
 21
241.2605811623246
 31
0.0
  0
LINE
  5
157
330
151
100
AcDbEntity
  8
BEMASSUNG
100
AcDbLine
 10
249.7646240376544
 20
197.9195093670431
 30
0.0
 11
249.7646240376544
 21
241.2605811623246
 31
0.0
  0
LINE
  5
158
330
151
100
AcDbEntity
  8
BEMASSUNG
100
AcDbLine
 10
99.76462403765446
 20
239.2605811623246
 30
0.0
 11
249.7646240376544
 21
239.2605811623246
 31
0.0
  0
MTEXT
  5
159
330
151
100
AcDbEntity
  8
BEMASSUNG
100
AcDbMText
 10
170.754766923426
 20
243.7723184843571
 30
-0.0000000000016915
 40
3.5
 41
0.0
 46
0.0
 71
     1
 72
     1
  1
150
  7
SLDTEXTSTYLE0
 73
     1
 44
1.0
  0
ENDBLK
  5
24F
330
151
100
AcDbEntity
  8
0
100
AcDbBlockEnd
  0
BLOCK
  5
250
330
15B
100
AcDbEntity
  8
0
100
AcDbBlockBegin
  2
*D5
 70
     1
 10
0.0
 20
0.0
 30
0.0
  3
*D5
  1

  0
SOLID
  5
15E
330
15B
100
AcDbEntity
  8
BEMASSUNG
100
AcDbTrace
 10
278.2034795289978
 20
196.9195093670431
 30
0.0
 11
277.5534795289978
 21
193.1195093670431
 31
0.0
 12
278.8534795289978
 22
193.1195093670431
 32
0.0
 13
278.8534795289978
 23
193.1195093670431
 33
0.0
  0
SOLID
  5
15F
330
15B
100
AcDbEntity
  8
BEMASSUNG
100
AcDbTrace
 10
278.2034795289978
 20
111.9195093670431
 30
0.0
 11
278.8534795289978
 21
115.7195093670431
 31
0.0
 12
277.5534795289978
 22
115.7195093670431
 32
0.0
 13
277.5534795289978
 23
115.7195093670431
 33
0.0
  0
LINE
  5
160
330
15B
100
AcDbEntity
  8
BEMASSUNG
100
AcDbLine
 10
250.7646240376544
 20
196.9195093670431
 30
0.0
 11
280.2034795289978
 21
196.9195093670431
 31
0.0
  0
LINE
  5
161
330
15B
100
AcDbEntity
  8
BEMASSUNG
100
AcDbLine
 10
250.7646240376544
 20
111.9195093670431
 30
0.0
 11
280.2034795289978
 21
111.9195093670431
 31
0.0
  0
LINE
  5
162
330
15B
100
AcDbEntity
  8
BEMASSUNG
100
AcDbLine
 10
278.2034795289978
 20
196.9195093670431
 30
0.0
 11
278.2034795289978
 21
111.9195093670431
 31
0.0
  0
MTEXT
  5
163
330
15B
100
AcDbEntity
  8
BEMASSUNG
100
AcDbMText
 10
273.6917422069652
 20
144.7651940363817
 30
-0.0000000000010316
 40
3.5
 41
0.0
 46
0.0
 71
     1
 72
     1
  1
85
  7
SLDTEXTSTYLE0
 11
-7.044195017643634E-15
 21
1.0
 31
0.0
 73
     1
 44
1.0
  0
ENDBLK
  5
251
330
15B
100
AcDbEntity
  8
0
100
AcDbBlockEnd
  0
BLOCK
  5
252
330
166
100
AcDbEntity
  8
0
100
AcDbBlockBegin
  2
SW_NOTE_0
 70
     0
 10
0.0
 20
0.0
 30
0.0
  3
SW_NOTE_0
  1

  0
MTEXT
  5
169
330
166
100
AcDbEntity
  8
TEXT
 62
     0
100
AcDbMText
 10
0.0
 20
6.445338698859826
 30
0.0
 40
5.0
 41
0.0
 46
0.0
 71
     1
 72
     1
  1
Anschlussbox U3000 / U5000 EX 8256
  7
SLDTEXTSTYLE1
 73
     1
 44
1.0
  0
MTEXT
  5
16A
330
166
100
AcDbEntity
  8
TEXT
 62
     0
100
AcDbMText
 10
0.0
 20
-1.554661681119784
 30
0.0
 40
5.0
 41
0.0
 46
0.0
 71
     1
 72
     1
  1
Wasseranschluß nur möglich bei externer freier Fallstrecke
  7
SLDTEXTSTYLE1
 73
     1
 44
1.0
  0
MTEXT
  5
16B
330
166
100
AcDbEntity
  8
TEXT
 62
     0
100
AcDbMText
 10
0.0
 20
-9.554662061099394
 30
0.0
 40
5.0
 41
0.0
 46
0.0
 71
     1
 72
     1
  1
nach DVGW
  7
SLDTEXTSTYLE1
 73
     1
 44
1.0
  0
ENDBLK
  5
253
330
166
100
AcDbEntity
  8
0
100
AcDbBlockEnd
  0
BLOCK
  5
254
330
176
100
AcDbEntity
  8
0
100
AcDbBlockBegin
  2
SW_CENTERMARKSYMBOL_0
 70
     0
 10
0.0
 20
0.0
 30
0.0
  3
SW_CENTERMARKSYMBOL_0
  1

  0
LINE
  5
179
330
176
100
AcDbEntity
  8
MITTELLINIEN
 62
     0
100
AcDbLine
 10
0.0
 20
0.0
 30
0.0
 11
0.0
 21
3.000000000000003
 31
0.0
  0
LINE
  5
17A
330
176
100
AcDbEntity
  8
MITTELLINIEN
 62
     0
100
AcDbLine
 10
0.0
 20
0.0
 30
0.0
 11
-3.000000000000003
 21
0.0
 31
0.0
  0
LINE
  5
17B
330
176
100
AcDbEntity
  8
MITTELLINIEN
 62
     0
100
AcDbLine
 10
0.0
 20
0.0
 30
0.0
 11
0.0
 21
-3.000000000000003
 31
0.0
  0
LINE
  5
17C
330
176
100
AcDbEntity
  8
MITTELLINIEN
 62
     0
100
AcDbLine
 10
0.0
 20
0.0
 30
0.0
 11
3.000000000000003
 21
0.0
 31
0.0
  0
LINE
  5
17D
330
176
100
AcDbEntity
  8
MITTELLINIEN
 62
     0
100
AcDbLine
 10
0.0
 20
6.000000000000005
 30
0.0
 11
0.0
 21
18.49999999999999
 31
0.0
  0
LINE
  5
17E
330
176
100
AcDbEntity
  8
MITTELLINIEN
 62
     0
100
AcDbLine
 10
-6.000000000000005
 20
0.0
 30
0.0
 11
-18.49999999999999
 21
0.0
 31
0.0
  0
LINE
  5
17F
330
176
100
AcDbEntity
  8
MITTELLINIEN
 62
     0
100
AcDbLine
 10
0.0
 20
-6.000000000000005
 30
0.0
 11
0.0
 21
-18.49999999999999
 31
0.0
  0
LINE
  5
180
330
176
100
AcDbEntity
  8
MITTELLINIEN
 62
     0
100
AcDbLine
 10
6.000000000000005
 20
0.0
 30
0.0
 11
38.53722836499493
 21
0.0
 31
0.0
  0
ENDBLK
  5
255
330
176
100
AcDbEntity
  8
0
100
AcDbBlockEnd
  0
BLOCK
  5
256
330
182
100
AcDbEntity
  8
0
100
AcDbBlockBegin
  2
SW_CENTERMARKSYMBOL_1
 70
     0
 10
0.0
 20
0.0
 30
0.0
  3
SW_CENTERMARKSYMBOL_1
  1

  0
LINE
  5
185
330
182
100
AcDbEntity
  8
MITTELLINIEN
 62
     0
100
AcDbLine
 10
0.0
 20
0.0
 30
0.0
 11
0.0
 21
6.000000000000005
 31
0.0
  0
LINE
  5
186
330
182
100
AcDbEntity
  8
MITTELLINIEN
 62
     0
100
AcDbLine
 10
0.0
 20
0.0
 30
0.0
 11
-6.000000000000005
 21
0.0
 31
0.0
  0
LINE
  5
187
330
182
100
AcDbEntity
  8
MITTELLINIEN
 62
     0
100
AcDbLine
 10
0.0
 20
0.0
 30
0.0
 11
0.0
 21
-6.000000000000005
 31
0.0
  0
LINE
  5
188
330
182
100
AcDbEntity
  8
MITTELLINIEN
 62
     0
100
AcDbLine
 10
0.0
 20
0.0
 30
0.0
 11
6.000000000000005
 21
0.0
 31
0.0
  0
LINE
  5
189
330
182
100
AcDbEntity
  8
MITTELLINIEN
 62
     0
100
AcDbLine
 10
150.0
 20
0.0
 30
0.0
 11
150.0
 21
6.000000000000005
 31
0.0
  0
LINE
  5
18A
330
182
100
AcDbEntity
  8
MITTELLINIEN
 62
     0
100
AcDbLine
 10
150.0
 20
0.0
 30
0.0
 11
144.0
 21
0.0
 31
0.0
  0
LINE
  5
18B
330
182
100
AcDbEntity
  8
MITTELLINIEN
 62
     0
100
AcDbLine
 10
150.0
 20
0.0
 30
0.0
 11
150.0
 21
-6.000000000000005
 31
0.0
  0
LINE
  5
18C
330
182
100
AcDbEntity
  8
MITTELLINIEN
 62
     0
100
AcDbLine
 10
150.0
 20
0.0
 30
0.0
 11
156.0
 21
0.0
 31
0.0
  0
LINE
  5
18D
330
182
100
AcDbEntity
  8
MITTELLINIEN
 62
     0
100
AcDbLine
 10
150.0
 20
-85.0
 30
0.0
 11
150.0
 21
-79.0
 31
0.0
  0
LINE
  5
18E
330
182
100
AcDbEntity
  8
MITTELLINIEN
 62
     0
100
AcDbLine
 10
150.0
 20
-85.0
 30
0.0
 11
144.0
 21
-85.0
 31
0.0
  0
LINE
  5
18F
330
182
100
AcDbEntity
  8
MITTELLINIEN
 62
     0
100
AcDbLine
 10
150.0
 20
-85.0
 30
0.0
 11
150.0
 21
-91.00000000000001
 31
0.0
  0
LINE
  5
190
330
182
100
AcDbEntity
  8
MITTELLINIEN
 62
     0
100
AcDbLine
 10
150.0
 20
-85.0
 30
0.0
 11
156.0
 21
-85.0
 31
0.0
  0
LINE
  5
191
330
182
100
AcDbEntity
  8
MITTELLINIEN
 62
     0
100
AcDbLine
 10
12.0
 20
0.0
 30
0.0
 11
138.0
 21
0.0
 31
0.0
  0
LINE
  5
192
330
182
100
AcDbEntity
  8
MITTELLINIEN
 62
     0
100
AcDbLine
 10
150.0
 20
-73.00000000000001
 30
0.0
 11
150.0
 21
-12.00000000000001
 31
0.0
  0
ENDBLK
  5
257
330
182
100
AcDbEntity
  8
0
100
AcDbBlockEnd
  0
BLOCK
  5
258
330
194
100
AcDbEntity
  8
0
100
AcDbBlockBegin
  2
SW_CENTERMARKSYMBOL_2
 70
     0
 10
0.0
 20
0.0
 30
0.0
  3
SW_CENTERMARKSYMBOL_2
  1

  0
LINE
  5
197
330
194
100
AcDbEntity
  8
MITTELLINIEN
 62
     0
100
AcDbLine
 10
0.0
 20
0.0
 30
0.0
 11
0.0
 21
1.000000000000001
 31
0.0
  0
LINE
  5
198
330
194
100
AcDbEntity
  8
MITTELLINIEN
 62
     0
100
AcDbLine
 10
0.0
 20
0.0
 30
0.0
 11
-1.000000000000001
 21
0.0
 31
0.0
  0
LINE
  5
199
330
194
100
AcDbEntity
  8
MITTELLINIEN
 62
     0
100
AcDbLine
 10
0.0
 20
0.0
 30
0.0
 11
0.0
 21
-1.000000000000001
 31
0.0
  0
LINE
  5
19A
330
194
100
AcDbEntity
  8
MITTELLINIEN
 62
     0
100
AcDbLine
 10
0.0
 20
0.0
 30
0.0
 11
1.000000000000001
 21
0.0
 31
0.0
  0
LINE
  5
19B
330
194
100
AcDbEntity
  8
MITTELLINIEN
 62
     0
100
AcDbLine
 10
0.0
 20
2.000000000000002
 30
0.0
 11
0.0
 21
11.50000000000001
 31
0.0
  0
LINE
  5
19C
330
194
100
AcDbEntity
  8
MITTELLINIEN
 62
     0
100
AcDbLine
 10
-2.000000000000002
 20
0.0
 30
0.0
 11
-11.50000000000001
 21
0.0
 31
0.0
  0
LINE
  5
19D
330
194
100
AcDbEntity
  8
MITTELLINIEN
 62
     0
100
AcDbLine
 10
0.0
 20
-2.000000000000002
 30
0.0
 11
0.0
 21
-11.50000000000001
 31
0.0
  0
LINE
  5
19E
330
194
100
AcDbEntity
  8
MITTELLINIEN
 62
     0
100
AcDbLine
 10
2.000000000000002
 20
0.0
 30
0.0
 11
11.50000000000001
 21
0.0
 31
0.0
  0
ENDBLK
  5
259
330
194
100
AcDbEntity
  8
0
100
AcDbBlockEnd
  0
BLOCK
  5
25A
330
1A0
100
AcDbEntity
  8
0
100
AcDbBlockBegin
  2
SW_DOWELSYMBOL_0
 70
     0
 10
0.0
 20
0.0
 30
0.0
  3
SW_DOWELSYMBOL_0
  1

  0
CIRCLE
  5
1A3
330
1A0
100
AcDbEntity
  8
0
  6
SLD-Durchgehend
 62
     0
370
     0
100
AcDbCircle
 10
0.0
 20
0.0
 30
0.0
 40
3.250000000000008
  0
HATCH
  5
1A4
330
1A0
100
AcDbEntity
  8
SCHRAFFUR
100
AcDbHatch
 10
0.0
 20
0.0
 30
0.0
210
0.0
220
0.0
230
1.0
  2
SOLID
 70
     1
 71
     0
 91
        1
 92
        0
 93
        3
 72
     2
 10
0.0
 20
0.0
 40
3.250000000000008
 50
0.0
 51
90.0
 73
     1
 72
     1
 10
0.0
 20
3.250000000000003
 11
0.0
 21
0.0
 72
     1
 10
0.0
 20
0.0
 11
3.250000000000003
 21
0.0
 97
        0
 75
     0
 76
     1
 98
        1
 10
0.0
 20
0.0
  0
HATCH
  5
1A5
330
1A0
100
AcDbEntity
  8
SCHRAFFUR
100
AcDbHatch
 10
0.0
 20
0.0
 30
0.0
210
0.0
220
0.0
230
1.0
  2
SOLID
 70
     1
 71
     0
 91
        1
 92
        0
 93
        3
 72
     2
 10
0.0
 20
0.0
 40
3.250000000000008
 50
180.0
 51
270.0000000000008
 73
     1
 72
     1
 10
0.0
 20
-3.250000000000003
 11
0.0
 21
0.0
 72
     1
 10
0.0
 20
0.0
 11
-3.250000000000003
 21
0.0
 97
        0
 75
     0
 76
     1
 98
        1
 10
0.0
 20
0.0
  0
ENDBLK
  5
25B
330
1A0
100
AcDbEntity
  8
0
100
AcDbBlockEnd
  0
BLOCK
  5
25C
330
1A7
100
AcDbEntity
  8
0
100
AcDbBlockBegin
  2
SW_DOWELSYMBOL_1
 70
     0
 10
0.0
 20
0.0
 30
0.0
  3
SW_DOWELSYMBOL_1
  1

  0
CIRCLE
  5
1AA
330
1A7
100
AcDbEntity
  8
0
  6
SLD-Durchgehend
 62
     0
370
     0
100
AcDbCircle
 10
0.0
 20
0.0
 30
0.0
 40
3.24999999999992
  0
HATCH
  5
1AB
330
1A7
100
AcDbEntity
  8
SCHRAFFUR
100
AcDbHatch
 10
0.0
 20
0.0
 30
0.0
210
0.0
220
0.0
230
1.0
  2
SOLID
 70
     1
 71
     0
 91
        1
 92
        0
 93
        3
 72
     2
 10
0.0
 20
0.0
 40
3.24999999999992
 50
0.0
 51
90.0
 73
     1
 72
     1
 10
0.0
 20
3.24999999999992
 11
0.0
 21
0.0
 72
     1
 10
0.0
 20
0.0
 11
3.249999999999948
 21
0.0
 97
        0
 75
     0
 76
     1
 98
        1
 10
0.0
 20
0.0
  0
HATCH
  5
1AC
330
1A7
100
AcDbEntity
  8
SCHRAFFUR
100
AcDbHatch
 10
0.0
 20
0.0
 30
0.0
210
0.0
220
0.0
230
1.0
  2
SOLID
 70
     1
 71
     0
 91
        1
 92
        0
 93
        3
 72
     2
 10
0.0
 20
0.0
 40
3.24999999999992
 50
180.0
 51
270.0000000000008
 73
     1
 72
     1
 10
0.0
 20
-3.24999999999992
 11
0.0
 21
0.0
 72
     1
 10
0.0
 20
0.0
 11
-3.24999999999992
 21
0.0
 97
        0
 75
     0
 76
     1
 98
        1
 10
0.0
 20
0.0
  0
ENDBLK
  5
25D
330
1A7
100
AcDbEntity
  8
0
100
AcDbBlockEnd
  0
BLOCK
  5
25E
330
1AE
100
AcDbEntity
  8
0
100
AcDbBlockBegin
  2
SW_DOWELSYMBOL_2
 70
     0
 10
0.0
 20
0.0
 30
0.0
  3
SW_DOWELSYMBOL_2
  1

  0
CIRCLE
  5
1B1
330
1AE
100
AcDbEntity
  8
0
  6
SLD-Durchgehend
 62
     0
370
     0
100
AcDbCircle
 10
0.0
 20
0.0
 30
0.0
 40
3.24999999999995
  0
HATCH
  5
1B2
330
1AE
100
AcDbEntity
  8
SCHRAFFUR
100
AcDbHatch
 10
0.0
 20
0.0
 30
0.0
210
0.0
220
0.0
230
1.0
  2
SOLID
 70
     1
 71
     0
 91
        1
 92
        0
 93
        3
 72
     2
 10
0.0
 20
0.0
 40
3.24999999999995
 50
0.0
 51
90.0
 73
     1
 72
     1
 10
0.0
 20
3.249999999999948
 11
0.0
 21
0.0
 72
     1
 10
0.0
 20
0.0
 11
3.249999999999975
 21
0.0
 97
        0
 75
     0
 76
     1
 98
        1
 10
0.0
 20
0.0
  0
HATCH
  5
1B3
330
1AE
100
AcDbEntity
  8
SCHRAFFUR
100
AcDbHatch
 10
0.0
 20
0.0
 30
0.0
210
0.0
220
0.0
230
1.0
  2
SOLID
 70
     1
 71
     0
 91
        1
 92
        0
 93
        3
 72
     2
 10
0.0
 20
0.0
 40
3.24999999999995
 50
180.0
 51
270.0000000000008
 73
     1
 72
     1
 10
0.0
 20
-3.249999999999948
 11
0.0
 21
0.0
 72
     1
 10
0.0
 20
0.0
 11
-3.249999999999948
 21
0.0
 97
        0
 75
     0
 76
     1
 98
        1
 10
0.0
 20
0.0
  0
ENDBLK
  5
25F
330
1AE
100
AcDbEntity
  8
0
100
AcDbBlockEnd
  0
ENDSEC
  0
SECTION
  2
ENTITIES
  0
LINE
  5
4D
330
1F
100
AcDbEntity
  8
0
  6
SLD-Durchgehend
 62
     7
370
    15
100
AcDbLine
 10
87.76462403765443
 20
183.9195093670431
 30
0.0
 11
122.7646240376544
 21
183.9195093670431
 31
0.0
  0
LINE
  5
4E
330
1F
100
AcDbEntity
  8
0
  6
SLD-Durchgehend
 62
     7
370
    40
100
AcDbLine
 10
87.76462403765447
 20
81.91950936704309
 30
0.0
 11
322.7646240376544
 21
81.91950936704309
 31
0.0
  0
LINE
  5
4F
330
1F
100
AcDbEntity
  8
0
  6
SLD-Durchgehend
 62
     7
370
    40
100
AcDbLine
 10
87.76462403765447
 20
81.91950936704309
 30
0.0
 11
87.76462403765444
 21
163.9195093670431
 31
0.0
  0
LINE
  5
50
330
1F
100
AcDbEntity
  8
0
  6
SLD-Durchgehend
 62
     7
370
    40
100
AcDbLine
 10
87.76462403765447
 20
226.9195093670431
 30
0.0
 11
322.7646240376544
 21
226.9195093670431
 31
0.0
  0
LINE
  5
51
330
1F
100
AcDbEntity
  8
0
  6
SLD-Durchgehend
 62
     7
370
    40
100
AcDbLine
 10
322.7646240376544
 20
81.91950936704309
 30
0.0
 11
322.7646240376544
 21
226.9195093670431
 31
0.0
  0
LINE
  5
52
330
1F
100
AcDbEntity
  8
0
  6
SLD-Durchgehend
 62
     7
370
    15
100
AcDbLine
 10
122.7646240376544
 20
183.9195093670431
 30
0.0
 11
122.7646240376544
 21
173.9195093670431
 31
0.0
  0
LINE
  5
53
330
1F
100
AcDbEntity
  8
0
  6
SLD-Durchgehend
 62
     7
370
    15
100
AcDbLine
 10
122.7646240376544
 20
163.9195093670431
 30
0.0
 11
87.76462403765444
 21
163.9195093670431
 31
0.0
  0
LINE
  5
54
330
1F
100
AcDbEntity
  8
0
  6
SLD-Durchgehend
 62
     7
370
    40
100
AcDbLine
 10
87.76462403765443
 20
183.9195093670431
 30
0.0
 11
87.76462403765447
 21
226.9195093670431
 31
0.0
  0
LINE
  5
55
330
1F
100
AcDbEntity
  8
0
  6
SLD-Durchgehend
 62
     7
370
    15
100
AcDbLine
 10
87.76462403765446
 20
151.7501964449941
 30
0.0
 11
89.76462403765447
 21
151.7501964449941
 31
0.0
  0
LINE
  5
56
330
1F
100
AcDbEntity
  8
0
  6
SLD-Durchgehend
 62
     7
370
    15
100
AcDbLine
 10
89.76462403765447
 20
151.7501964449941
 30
0.0
 11
89.76462403765447
 21
161.9195093670431
 31
0.0
  0
LINE
  5
57
330
1F
100
AcDbEntity
  8
0
  6
SLD-Durchgehend
 62
     7
370
    15
100
AcDbLine
 10
89.76462403765447
 20
161.9195093670431
 30
0.0
 11
164.7646240376545
 21
161.9195093670431
 31
0.0
  0
LINE
  5
58
330
1F
100
AcDbEntity
  8
0
  6
SLD-Durchgehend
 62
     7
370
    15
100
AcDbLine
 10
164.7646240376545
 20
226.9195093670431
 30
0.0
 11
164.7646240376545
 21
81.91950936704309
 31
0.0
  0
LINE
  5
201
330
1F
100
AcDbEntity
  8
0
  6
SLD-Durchgehend
 62
     7
370
    15
100
AcDbLine
 10
171.7646240376545
 20
226.9195093670431
 30
0.0
 11
171.7646240376545
 21
81.91950936704309
 31
0.0
  0
LINE
  5
202
330
1F
100
AcDbEntity
  8
0
  6
SLD-Durchgehend
 62
     7
370
    40
100
AcDbLine
 10
319.7646240376544
 20
226.9195093670431
 30
0.0
 11
319.7646240376544
 21
81.91950936704309
 31
0.0
  0
LINE
  5
5B
330
1F
100
AcDbEntity
  8
MITTELLINIEN
100
AcDbLine
 10
316.7646240376545
 20
123.9195093670431
 30
0.0
 11
381.3523346693385
 21
123.9195093670431
 31
0.0
  0
LINE
  5
5C
330
1F
100
AcDbEntity
  8
0
  6
SLD-Durchgehend
 62
     7
370
    15
100
AcDbLine
 10
319.7646240376545
 20
138.9195093670431
 30
0.0
 11
316.7646240376545
 21
138.9195093670431
 31
0.0
  0
LINE
  5
5D
330
1F
100
AcDbEntity
  8
0
  6
SLD-Durchgehend
 62
     7
370
    15
100
AcDbLine
 10
319.7646240376545
 20
138.9195093670431
 30
0.0
 11
319.7646240376545
 21
108.9195093670431
 31
0.0
  0
LINE
  5
203
330
1F
100
AcDbEntity
  8
0
  6
SLD-Durchgehend
 62
     7
370
    15
100
AcDbLine
 10
319.7646240376545
 20
108.9195093670431
 30
0.0
 11
316.7646240376545
 21
108.9195093670431
 31
0.0
  0
LINE
  5
5F
330
1F
100
AcDbEntity
  8
0
  6
SLD-Durchgehend
 62
     7
370
    15
100
AcDbLine
 10
316.7646240376545
 20
138.9195093670431
 30
0.0
 11
316.7646240376545
 21
108.9195093670431
 31
0.0
  0
LINE
  5
60
330
1F
100
AcDbEntity
  8
0
  6
SLD-Durchgehend
 62
     7
370
    15
100
AcDbLine
 10
322.7646240376544
 20
108.9195093670431
 30
0.0
 11
327.2646240376544
 21
108.9195093670431
 31
0.0
  0
LINE
  5
61
330
1F
100
AcDbEntity
  8
0
  6
SLD-Durchgehend
 62
     7
370
    15
100
AcDbLine
 10
322.7646240376544
 20
108.9195093670431
 30
0.0
 11
322.7646240376544
 21
138.9195093670431
 31
0.0
  0
LINE
  5
62
330
1F
100
AcDbEntity
  8
0
  6
SLD-Durchgehend
 62
     7
370
    15
100
AcDbLine
 10
322.7646240376544
 20
138.9195093670431
 30
0.0
 11
327.2646240376544
 21
138.9195093670431
 31
0.0
  0
LINE
  5
63
330
1F
100
AcDbEntity
  8
0
  6
SLD-Durchgehend
 62
     7
370
    15
100
AcDbLine
 10
327.2646240376544
 20
108.9195093670431
 30
0.0
 11
327.2646240376544
 21
138.9195093670431
 31
0.0
  0
LINE
  5
64
330
1F
100
AcDbEntity
  8
0
  6
SLD-Durchgehend
 62
     7
370
    15
100
AcDbLine
 10
327.2646240376544
 20
110.9195093670431
 30
0.0
 11
337.2646240376545
 21
110.9195093670431
 31
0.0
  0
LINE
  5
65
330
1F
100
AcDbEntity
  8
0
  6
SLD-Durchgehend
 62
     7
370
    15
100
AcDbLine
 10
327.2646240376544
 20
110.9195093670431
 30
0.0
 11
327.2646240376544
 21
136.9195093670431
 31
0.0
  0
LINE
  5
66
330
1F
100
AcDbEntity
  8
0
  6
SLD-Durchgehend
 62
     7
370
    15
100
AcDbLine
 10
327.2646240376544
 20
136.9195093670431
 30
0.0
 11
337.2646240376545
 21
136.9195093670431
 31
0.0
  0
LINE
  5
67
330
1F
100
AcDbEntity
  8
0
  6
SLD-Durchgehend
 62
     7
370
    15
100
AcDbLine
 10
337.2646240376545
 20
110.9195093670431
 30
0.0
 11
337.2646240376545
 21
136.9195093670431
 31
0.0
  0
LINE
  5
68
330
1F
100
AcDbEntity
  8
0
  6
SLD-Durchgehend
 62
     7
370
    15
100
AcDbLine
 10
337.2646240376545
 20
108.9195093670431
 30
0.0
 11
356.2646240376545
 21
108.9195093670431
 31
0.0
  0
LINE
  5
69
330
1F
100
AcDbEntity
  8
0
  6
SLD-Durchgehend
 62
     7
370
    15
100
AcDbLine
 10
337.2646240376545
 20
108.9195093670431
 30
0.0
 11
337.2646240376545
 21
138.9195093670431
 31
0.0
  0
LINE
  5
6A
330
1F
100
AcDbEntity
  8
0
  6
SLD-Durchgehend
 62
     7
370
    15
100
AcDbLine
 10
337.2646240376545
 20
138.9195093670431
 30
0.0
 11
356.2646240376545
 21
138.9195093670431
 31
0.0
  0
LINE
  5
204
330
1F
100
AcDbEntity
  8
0
  6
SLD-Durchgehend
 62
     7
370
    15
100
AcDbLine
 10
356.2646240376545
 20
108.9195093670431
 30
0.0
 11
356.2646240376545
 21
138.9195093670431
 31
0.0
  0
LINE
  5
205
330
1F
100
AcDbEntity
  8
0
  6
SLD-Durchgehend
 62
     7
370
    15
100
AcDbLine
 10
356.2646240376545
 20
112.9195093670431
 30
0.0
 11
374.7646240376544
 21
112.9195093670431
 31
0.0
  0
LINE
  5
6D
330
1F
100
AcDbEntity
  8
0
  6
SLD-Durchgehend
 62
     7
370
    15
100
AcDbLine
 10
356.2646240376545
 20
112.9195093670431
 30
0.0
 11
356.2646240376545
 21
134.9195093670431
 31
0.0
  0
LINE
  5
6E
330
1F
100
AcDbEntity
  8
0
  6
SLD-Durchgehend
 62
     7
370
    15
100
AcDbLine
 10
356.2646240376545
 20
134.9195093670431
 30
0.0
 11
374.7646240376544
 21
134.9195093670431
 31
0.0
  0
LINE
  5
6F
330
1F
100
AcDbEntity
  8
0
  6
SLD-Durchgehend
 62
     7
370
    15
100
AcDbLine
 10
358.1261154774479
 20
132.9195093670431
 30
0.0
 11
362.582615797857
 21
114.8954602394106
 31
0.0
  0
LINE
  5
70
330
1F
100
AcDbEntity
  8
0
  6
SLD-Durchgehend
 62
     7
370
     0
100
AcDbLine
 10
316.7646240376545
 20
123.9195093670431
 30
0.0
 11
311.4208357171051
 21
123.9195093670431
 31
0.0
  0
LINE
  5
71
330
1F
100
AcDbEntity
  8
0
  6
SLD-Durchgehend
 62
     7
370
    15
100
AcDbLine
 10
89.26462403765447
 20
87.91950936704309
 30
0.0
 11
89.26462403765447
 21
151.7501964449941
 31
0.0
  0
LINE
  5
72
330
1F
100
AcDbEntity
  8
0
  6
SLD-Durchgehend
 62
     7
370
    15
100
AcDbLine
 10
89.26462403765447
 20
87.91950936704309
 30
0.0
 11
164.7646240376545
 21
87.91950936704309
 31
0.0
  0
LINE
  5
206
330
1F
100
AcDbEntity
  8
0
  6
SLD-Gestrichelt
 62
     7
370
    15
100
AcDbLine
 10
164.7646240376545
 20
87.91950936704309
 30
0.0
 11
262.7646240376545
 21
87.91950936704309
 31
0.0
  0
LINE
  5
207
330
1F
100
AcDbEntity
  8
0
  6
SLD-Gestrichelt
 62
     7
370
    15
100
AcDbLine
 10
262.7646240376545
 20
87.91950936704309
 30
0.0
 11
262.7646240376544
 21
222.9195093670431
 31
0.0
  0
LINE
  5
208
330
1F
100
AcDbEntity
  8
0
  6
SLD-Gestrichelt
 62
     7
370
    15
100
AcDbLine
 10
262.7646240376544
 20
222.9195093670431
 30
0.0
 11
89.76462403765446
 21
222.9195093670431
 31
0.0
  0
LINE
  5
209
330
1F
100
AcDbEntity
  8
0
  6
SLD-Gestrichelt
 62
     7
370
    15
100
AcDbLine
 10
89.76462403765446
 20
222.9195093670431
 30
0.0
 11
89.76462403765446
 21
183.9195093670431
 31
0.0
  0
LINE
  5
77
330
1F
100
AcDbEntity
  8
MITTELLINIEN
100
AcDbLine
 10
185.7646240376544
 20
189.9195093670431
 30
0.0
 11
121.9614119321445
 21
189.919509367043
 31
0.0
  0
LINE
  5
78
330
1F
100
AcDbEntity
  8
0
  6
SLD-Durchgehend
 62
     7
370
    15
100
AcDbLine
 10
164.7646240376545
 20
168.9195093670431
 30
0.0
 11
137.7646240376545
 21
168.9195093670431
 31
0.0
  0
LINE
  5
79
330
1F
100
AcDbEntity
  8
0
  6
SLD-Durchgehend
 62
     7
370
    15
100
AcDbLine
 10
164.7646240376545
 20
168.9195093670431
 30
0.0
 11
164.7646240376545
 21
210.919509367043
 31
0.0
  0
LINE
  5
7A
330
1F
100
AcDbEntity
  8
0
  6
SLD-Durchgehend
 62
     7
370
    15
100
AcDbLine
 10
164.7646240376545
 20
210.919509367043
 30
0.0
 11
137.7646240376545
 21
210.919509367043
 31
0.0
  0
LINE
  5
7B
330
1F
100
AcDbEntity
  8
0
  6
SLD-Durchgehend
 62
     7
370
    15
100
AcDbLine
 10
137.7646240376545
 20
168.9195093670431
 30
0.0
 11
137.7646240376545
 21
210.919509367043
 31
0.0
  0
LINE
  5
7C
330
1F
100
AcDbEntity
  8
0
  6
SLD-Durchgehend
 62
     7
370
    15
100
AcDbLine
 10
137.7646240376545
 20
173.419509367043
 30
0.0
 11
129.7646240376545
 21
173.419509367043
 31
0.0
  0
LINE
  5
7D
330
1F
100
AcDbEntity
  8
0
  6
SLD-Durchgehend
 62
     7
370
    15
100
AcDbLine
 10
137.7646240376545
 20
173.419509367043
 30
0.0
 11
137.7646240376545
 21
206.4195093670431
 31
0.0
  0
LINE
  5
7E
330
1F
100
AcDbEntity
  8
0
  6
SLD-Durchgehend
 62
     7
370
    15
100
AcDbLine
 10
137.7646240376545
 20
206.4195093670431
 30
0.0
 11
123.7646240376544
 21
206.4195093670431
 31
0.0
  0
LINE
  5
7F
330
1F
100
AcDbEntity
  8
0
  6
SLD-Durchgehend
 62
     7
370
    15
100
AcDbLine
 10
123.7646240376544
 20
173.9195093670431
 30
0.0
 11
123.7646240376544
 21
206.4195093670431
 31
0.0
  0
LINE
  5
80
330
1F
100
AcDbEntity
  8
0
  6
SLD-Durchgehend
 62
     7
370
    15
100
AcDbLine
 10
171.7646240376544
 20
214.9195093670431
 30
0.0
 11
185.7646240376544
 21
214.9195093670431
 31
0.0
  0
LINE
  5
81
330
1F
100
AcDbEntity
  8
0
  6
SLD-Durchgehend
 62
     7
370
    15
100
AcDbLine
 10
171.7646240376544
 20
214.9195093670431
 30
0.0
 11
171.7646240376544
 21
164.9195093670431
 31
0.0
  0
LINE
  5
82
330
1F
100
AcDbEntity
  8
0
  6
SLD-Durchgehend
 62
     7
370
    15
100
AcDbLine
 10
171.7646240376544
 20
164.9195093670431
 30
0.0
 11
185.7646240376544
 21
164.9195093670431
 31
0.0
  0
LINE
  5
83
330
1F
100
AcDbEntity
  8
0
  6
SLD-Durchgehend
 62
     7
370
    15
100
AcDbLine
 10
185.7646240376544
 20
214.9195093670431
 30
0.0
 11
185.7646240376544
 21
164.9195093670431
 31
0.0
  0
LINE
  5
84
330
1F
100
AcDbEntity
  8
0
  6
SLD-Durchgehend
 62
     7
370
    15
100
AcDbLine
 10
122.7646240376544
 20
163.9195093670431
 30
0.0
 11
164.7646240376545
 21
163.9195093670431
 31
0.0
  0
LINE
  5
85
330
1F
100
AcDbEntity
  8
MITTELLINIEN
100
AcDbLine
 10
322.7646240376544
 20
154.4195093670431
 30
0.0
 11
75.07331663326653
 21
154.4195093670431
 31
0.0
  0
LINE
  5
86
330
1F
100
AcDbEntity
  8
MITTELLINIEN
100
AcDbLine
 10
322.7646240376544
 20
154.4195093670431
 30
0.0
 11
333.9989879759518
 21
154.4195093670431
 31
0.0
  0
LINE
  5
87
330
1F
100
AcDbEntity
  8
0
  6
SLD-Durchgehend
 62
   167
370
     0
100
AcDbLine
 10
69.2936237710799
 20
275.6097764186961
 30
0.0
 11
69.2936237710799
 21
280.6355769459619
 31
0.0
  0
LINE
  5
88
330
1F
100
AcDbEntity
  8
0
  6
SLD-Durchgehend
 62
     7
370
    15
100
AcDbLine
 10
171.7646240376544
 20
151.9195093670431
 30
0.0
 11
216.7646240376544
 21
151.9195093670431
 31
0.0
  0
LINE
  5
89
330
1F
100
AcDbEntity
  8
0
  6
SLD-Durchgehend
 62
     7
370
     0
100
AcDbLine
 10
171.7646240376544
 20
151.9195093670431
 30
0.0
 11
171.7646240376545
 21
81.91950936704309
 31
0.0
  0
LINE
  5
8A
330
1F
100
AcDbEntity
  8
0
  6
SLD-Durchgehend
 62
     7
370
     0
100
AcDbLine
 10
171.7646240376545
 20
81.91950936704309
 30
0.0
 11
216.7646240376544
 21
81.91950936704309
 31
0.0
  0
LINE
  5
8B
330
1F
100
AcDbEntity
  8
0
  6
SLD-Durchgehend
 62
     7
370
    15
100
AcDbLine
 10
216.7646240376544
 20
151.9195093670431
 30
0.0
 11
216.7646240376544
 21
146.4195093670431
 31
0.0
  0
LINE
  5
8C
330
1F
100
AcDbEntity
  8
0
  6
SLD-Durchgehend
 62
   167
370
     0
100
AcDbLine
 10
69.2936237710799
 20
280.6355769459619
 30
0.0
 11
67.97122698851707
 21
280.6355769459619
 31
0.0
  0
LINE
  5
8D
330
1F
100
AcDbEntity
  8
0
  6
SLD-Durchgehend
 62
   167
370
     0
100
AcDbLine
 10
67.97122698851707
 20
280.6355769459619
 30
0.0
 11
67.97122698851707
 21
275.6097764186961
 31
0.0
  0
LINE
  5
8E
330
1F
100
AcDbEntity
  8
0
  6
SLD-Durchgehend
 62
   167
370
     0
100
AcDbLine
 10
72.53206996489259
 20
275.0367865776523
 30
0.0
 11
72.53206996489259
 21
280.6355769459619
 31
0.0
  0
LINE
  5
8F
330
1F
100
AcDbEntity
  8
0
  6
SLD-Durchgehend
 62
   167
370
     0
100
AcDbLine
 10
72.53206996489259
 20
280.6355769459619
 30
0.0
 11
73.28049292095923
 21
280.6355769459619
 31
0.0
  0
LINE
  5
90
330
1F
100
AcDbEntity
  8
0
  6
SLD-Durchgehend
 62
     7
370
    15
100
AcDbLine
 10
171.7646240376544
 20
131.4195093670431
 30
0.0
 11
229.7646240376544
 21
131.419509367043
 31
0.0
  0
LINE
  5
91
330
1F
100
AcDbEntity
  8
0
  6
SLD-Durchgehend
 62
     7
370
    15
100
AcDbLine
 10
171.7646240376544
 20
131.4195093670431
 30
0.0
 11
171.7646240376544
 21
146.4195093670431
 31
0.0
  0
LINE
  5
20A
330
1F
100
AcDbEntity
  8
0
  6
SLD-Durchgehend
 62
     7
370
    15
100
AcDbLine
 10
171.7646240376544
 20
146.4195093670431
 30
0.0
 11
229.7646240376544
 21
146.4195093670431
 31
0.0
  0
LINE
  5
20B
330
1F
100
AcDbEntity
  8
0
  6
SLD-Durchgehend
 62
     7
370
    15
100
AcDbLine
 10
229.7646240376544
 20
131.419509367043
 30
0.0
 11
229.7646240376544
 21
146.4195093670431
 31
0.0
  0
LINE
  5
94
330
1F
100
AcDbEntity
  8
MITTELLINIEN
100
AcDbLine
 10
229.7646240376544
 20
138.9195093670431
 30
0.0
 11
146.5257989107156
 21
138.9195093670431
 31
0.0
  0
LINE
  5
95
330
1F
100
AcDbEntity
  8
MITTELLINIEN
100
AcDbLine
 10
229.7646240376544
 20
138.9195093670431
 30
0.0
 11
255.7646240376545
 21
138.9195093670431
 31
0.0
  0
LINE
  5
96
330
1F
100
AcDbEntity
  8
0
  6
SLD-Durchgehend
 62
   167
370
     0
100
AcDbLine
 10
73.28049292095923
 20
280.6355769459619
 30
0.0
 11
73.28049292095923
 21
275.7007453397961
 31
0.0
  0
LINE
  5
20C
330
1F
100
AcDbEntity
  8
0
  6
SLD-Durchgehend
 62
     7
370
    15
100
AcDbLine
 10
228.7334343520156
 20
146.4195093670431
 30
0.0
 11
228.7334343520156
 21
131.419509367043
 31
0.0
  0
LINE
  5
20D
330
1F
100
AcDbEntity
  8
0
  6
SLD-Durchgehend
 62
   167
370
     0
100
AcDbLine
 10
74.9789898181883
 20
280.6355769459619
 30
0.0
 11
73.98489762406749
 21
280.6355769459619
 31
0.0
  0
LINE
  5
20E
330
1F
100
AcDbEntity
  8
0
  6
SLD-Durchgehend
 62
   167
370
     0
100
AcDbLine
 10
73.98489762406749
 20
280.6355769459619
 30
0.0
 11
73.98489762406751
 21
273.3734428003989
 31
0.0
  0
LINE
  5
20F
330
1F
100
AcDbEntity
  8
0
  6
SLD-Durchgehend
 62
   167
370
     0
100
AcDbLine
 10
73.98489762406751
 20
273.3734428003989
 30
0.0
 11
77.8844275959033
 21
273.3734428003989
 31
0.0
  0
LINE
  5
210
330
1F
100
AcDbEntity
  8
0
  6
SLD-Durchgehend
 62
   167
370
     0
100
AcDbLine
 10
77.8844275959033
 20
273.3734428003989
 30
0.0
 11
77.8844275959033
 21
273.7930824352275
 31
0.0
  0
LINE
  5
211
330
1F
100
AcDbEntity
  8
0
  6
SLD-Durchgehend
 62
     7
370
    15
100
AcDbLine
 10
229.7646240376544
 20
132.9195093670431
 30
0.0
 11
242.7646240376544
 21
132.9195093670431
 31
0.0
  0
LINE
  5
212
330
1F
100
AcDbEntity
  8
0
  6
SLD-Durchgehend
 62
     7
370
    15
100
AcDbLine
 10
229.7646240376544
 20
132.9195093670431
 30
0.0
 11
229.7646240376544
 21
144.9195093670431
 31
0.0
  0
LINE
  5
213
330
1F
100
AcDbEntity
  8
0
  6
SLD-Durchgehend
 62
     7
370
    15
100
AcDbLine
 10
229.7646240376544
 20
144.9195093670431
 30
0.0
 11
242.7646240376544
 21
144.9195093670431
 31
0.0
  0
LINE
  5
214
330
1F
100
AcDbEntity
  8
0
  6
SLD-Durchgehend
 62
     7
370
    15
100
AcDbLine
 10
242.7646240376544
 20
132.9195093670431
 30
0.0
 11
242.7646240376544
 21
144.9195093670431
 31
0.0
  0
LINE
  5
215
330
1F
100
AcDbEntity
  8
0
  6
SLD-Durchgehend
 62
   167
370
     0
100
AcDbLine
 10
77.8844275959033
 20
273.7930824352275
 30
0.0
 11
74.97898981818827
 21
273.7930824352275
 31
0.0
  0
LINE
  5
216
330
1F
100
AcDbEntity
  8
0
  6
SLD-Durchgehend
 62
     7
370
    15
100
AcDbLine
 10
251.2296153546054
 20
141.9195093670431
 30
0.0
 11
242.7646240376544
 21
141.9195093670431
 31
0.0
  0
LINE
  5
217
330
1F
100
AcDbEntity
  8
0
  6
SLD-Durchgehend
 62
     7
370
    15
100
AcDbLine
 10
242.7646240376544
 20
141.9195093670431
 30
0.0
 11
242.7646240376544
 21
135.9195093670431
 31
0.0
  0
LINE
  5
218
330
1F
100
AcDbEntity
  8
0
  6
SLD-Durchgehend
 62
     7
370
    15
100
AcDbLine
 10
242.7646240376544
 20
135.9195093670431
 30
0.0
 11
251.2288540425891
 21
135.9195093670431
 31
0.0
  0
LINE
  5
219
330
1F
100
AcDbEntity
  8
0
  6
SLD-Durchgehend
 62
     7
370
    15
100
AcDbLine
 10
216.7646240376544
 20
106.4195093670431
 30
0.0
 11
216.7646240376544
 21
81.91950936704309
 31
0.0
  0
LINE
  5
21A
330
1F
100
AcDbEntity
  8
0
  6
SLD-Durchgehend
 62
     7
370
    15
100
AcDbLine
 10
216.7646240376544
 20
131.4195093670431
 30
0.0
 11
216.7646240376544
 21
106.4195093670431
 31
0.0
  0
LINE
  5
21B
330
1F
100
AcDbEntity
  8
0
  6
SLD-Durchgehend
 62
     7
370
    15
100
AcDbLine
 10
164.7646240376545
 20
150.9195093670431
 30
0.0
 11
151.3556143088685
 21
150.9195093670431
 31
0.0
  0
LINE
  5
21C
330
1F
100
AcDbEntity
  8
0
  6
SLD-Durchgehend
 62
     7
370
    15
100
AcDbLine
 10
164.7646240376545
 20
144.9195093670431
 30
0.0
 11
153.7168573924099
 21
144.9195093670431
 31
0.0
  0
LINE
  5
21D
330
1F
100
AcDbEntity
  8
0
  6
SLD-Durchgehend
 62
     7
370
    15
100
AcDbLine
 10
164.7646240376545
 20
132.9195093670431
 30
0.0
 11
151.3556143088685
 21
132.9195093670431
 31
0.0
  0
LINE
  5
21E
330
1F
100
AcDbEntity
  8
0
  6
SLD-Durchgehend
 62
     7
370
    15
100
AcDbLine
 10
164.7646240376545
 20
126.9195093670431
 30
0.0
 11
153.7168573924099
 21
126.9195093670431
 31
0.0
  0
LINE
  5
21F
330
1F
100
AcDbEntity
  8
0
  6
SLD-Durchgehend
 62
     7
370
    15
100
AcDbLine
 10
158.7646240376545
 20
143.3169643241721
 30
0.0
 11
156.817023152933
 21
134.976862934276
 31
0.0
  0
LINE
  5
220
330
1F
100
AcDbEntity
  8
0
  6
SLD-Durchgehend
 62
     7
370
    15
100
AcDbLine
 10
160.7122249223759
 20
142.8621557998102
 30
0.0
 11
158.7646240376545
 21
134.5220544099141
 31
0.0
  0
LINE
  5
221
330
1F
100
AcDbEntity
  8
0
  6
SLD-Durchgehend
 62
   167
370
     0
100
AcDbLine
 10
74.97898981818827
 20
273.7930824352275
 30
0.0
 11
74.9789898181883
 21
280.6355769459619
 31
0.0
  0
LINE
  5
222
330
1F
100
AcDbEntity
  8
0
  6
SLD-Durchgehend
 62
   167
370
     0
100
AcDbLine
 10
76.7263151260355
 20
280.6355769459619
 30
0.0
 11
81.0614118037839
 21
280.6355769459619
 31
0.0
  0
LINE
  5
223
330
1F
100
AcDbEntity
  8
0
  6
SLD-Durchgehend
 62
   167
370
     0
100
AcDbLine
 10
81.0614118037839
 20
280.6355769459619
 30
0.0
 11
81.0614118037839
 21
280.1074411754517
 31
0.0
  0
LINE
  5
224
330
1F
100
AcDbEntity
  8
0
  6
SLD-Durchgehend
 62
   167
370
     0
100
AcDbLine
 10
81.0614118037839
 20
280.1074411754517
 30
0.0
 11
79.57464579516987
 21
280.1074411754517
 31
0.0
  0
LINE
  5
225
330
1F
100
AcDbEntity
  8
0
  6
SLD-Durchgehend
 62
   167
370
     0
100
AcDbLine
 10
79.57464579516987
 20
280.1074411754517
 30
0.0
 11
79.57464579516987
 21
273.3734428003989
 31
0.0
  0
LINE
  5
226
330
1F
100
AcDbEntity
  8
0
  6
SLD-Durchgehend
 62
   167
370
     0
100
AcDbLine
 10
79.57464579516987
 20
273.3734428003989
 30
0.0
 11
78.50407977915108
 21
273.3734428003989
 31
0.0
  0
LINE
  5
227
330
1F
100
AcDbEntity
  8
0
  6
SLD-Durchgehend
 62
     7
370
    15
100
AcDbLine
 10
121.7646240376545
 20
171.4187442259963
 30
0.0
 11
129.7646240376545
 21
171.4187442259963
 31
0.0
  0
LINE
  5
228
330
1F
100
AcDbEntity
  8
0
  6
SLD-Durchgehend
 62
     7
370
    15
100
AcDbLine
 10
121.7646240376545
 20
163.9195093670431
 30
0.0
 11
129.7646240376545
 21
163.9195093670431
 31
0.0
  0
LINE
  5
229
330
1F
100
AcDbEntity
  8
0
  6
SLD-Durchgehend
 62
     7
370
    15
100
AcDbLine
 10
121.7646240376545
 20
163.9195093670431
 30
0.0
 11
121.7646240376545
 21
173.9195093670431
 31
0.0
  0
LINE
  5
22A
330
1F
100
AcDbEntity
  8
0
  6
SLD-Durchgehend
 62
     7
370
    15
100
AcDbLine
 10
121.7646240376545
 20
173.9195093670431
 30
0.0
 11
129.7646240376545
 21
173.9195093670431
 31
0.0
  0
LINE
  5
22B
330
1F
100
AcDbEntity
  8
0
  6
SLD-Durchgehend
 62
     7
370
    15
100
AcDbLine
 10
129.7646240376545
 20
163.9195093670431
 30
0.0
 11
129.7646240376545
 21
173.9195093670431
 31
0.0
  0
LINE
  5
22C
330
1F
100
AcDbEntity
  8
0
  6
SLD-Durchgehend
 62
     7
370
    15
100
AcDbLine
 10
121.7646240376545
 20
168.4046862134925
 30
0.0
 11
129.7646240376545
 21
168.4046862134925
 31
0.0
  0
LINE
  5
22D
330
1F
100
AcDbEntity
  8
0
  6
SLD-Durchgehend
 62
     7
370
    15
100
AcDbLine
 10
121.7646240376545
 20
165.8793943651785
 30
0.0
 11
129.7646240376545
 21
165.8793943651785
 31
0.0
  0
LINE
  5
22E
330
1F
100
AcDbEntity
  8
MITTELLINIEN
100
AcDbLine
 10
107.7646240376545
 20
174.9195093670431
 30
0.0
 11
107.7646240376545
 21
170.919509367043
 31
0.0
  0
LINE
  5
22F
330
1F
100
AcDbEntity
  8
0
  6
SLD-Durchgehend
 62
     7
370
    15
100
AcDbLine
 10
363.3871781518484
 20
132.9195093670431
 30
0.0
 11
367.8436784722576
 21
114.8954602394106
 31
0.0
  0
LINE
  5
BB
330
1F
100
AcDbEntity
  8
0
  6
SLD-Durchgehend
 62
     7
370
    15
100
AcDbLine
 10
369.23356091672
 20
132.9195093670431
 30
0.0
 11
373.6900612371292
 21
114.8954602394106
 31
0.0
  0
LINE
  5
BC
330
1F
100
AcDbEntity
  8
0
  6
SLD-Durchgehend
 62
   167
370
     0
100
AcDbLine
 10
78.50407977915108
 20
273.3734428003989
 30
0.0
 11
78.50407977915108
 21
280.0718147384239
 31
0.0
  0
LINE
  5
BD
330
1F
100
AcDbEntity
  8
0
  6
SLD-Durchgehend
 62
   167
370
     0
100
AcDbLine
 10
78.50407977915108
 20
280.0718147384239
 30
0.0
 11
76.7263151260355
 21
280.0718147384239
 31
0.0
  0
LINE
  5
BE
330
1F
100
AcDbEntity
  8
0
  6
SLD-Durchgehend
 62
   167
370
     0
100
AcDbLine
 10
76.7263151260355
 20
280.0718147384239
 30
0.0
 11
76.7263151260355
 21
280.6355769459619
 31
0.0
  0
LINE
  5
BF
330
1F
100
AcDbEntity
  8
0
  6
SLD-Durchgehend
 62
   167
370
     0
100
AcDbLine
 10
84.67623647984921
 20
280.6355769459619
 30
0.0
 11
81.68187924509324
 21
280.6355769459619
 31
0.0
  0
LINE
  5
C0
330
1F
100
AcDbEntity
  8
0
  6
SLD-Durchgehend
 62
   167
370
     0
100
AcDbLine
 10
81.68187924509324
 20
280.6355769459619
 30
0.0
 11
81.68187924509327
 21
273.3734428003989
 31
0.0
  0
LINE
  5
C1
330
1F
100
AcDbEntity
  8
0
  6
SLD-Durchgehend
 62
   167
370
     0
100
AcDbLine
 10
81.68187924509327
 20
273.3734428003989
 30
0.0
 11
82.81423067709697
 21
273.3734428003989
 31
0.0
  0
LINE
  5
C2
330
1F
100
AcDbEntity
  8
0
  6
SLD-Durchgehend
 62
   167
370
     0
100
AcDbLine
 10
82.81423067709697
 20
273.3734428003989
 30
0.0
 11
82.81423067709697
 21
280.2807584495496
 31
0.0
  0
LINE
  5
C3
330
1F
100
AcDbEntity
  8
0
  6
SLD-Durchgehend
 62
   167
370
     0
100
AcDbLine
 10
82.81423067709697
 20
280.2807584495496
 30
0.0
 11
83.77551366217162
 21
280.2807584495496
 31
0.0
  0
LINE
  5
C4
330
1F
100
AcDbEntity
  8
0
  6
SLD-Durchgehend
 62
   167
370
     0
100
AcDbLine
 10
84.67623647984921
 20
276.5624665198425
 30
0.0
 11
86.56834475553646
 21
273.3734428003989
 31
0.0
  0
LINE
  5
C5
330
1F
100
AcDbEntity
  8
0
  6
SLD-Durchgehend
 62
   167
370
     0
100
AcDbLine
 10
86.56834475553646
 20
273.3734428003989
 30
0.0
 11
85.25677332684106
 21
273.3734428003988
 31
0.0
  0
LINE
  5
C6
330
1F
100
AcDbEntity
  8
0
  6
SLD-Durchgehend
 62
   167
370
     0
100
AcDbLine
 10
85.25677332684106
 20
273.3734428003988
 30
0.0
 11
83.27470826979635
 21
276.9942230620869
 31
0.0
  0
LINE
  5
C7
330
1F
100
AcDbEntity
  8
0
  6
SLD-Durchgehend
 62
   167
370
     0
100
AcDbLine
 10
86.99282566972819
 20
273.3734428003989
 30
0.0
 11
90.42021257379648
 21
282.2157880095248
 31
0.0
  0
LINE
  5
C8
330
1F
100
AcDbEntity
  8
0
  6
SLD-Durchgehend
 62
   167
370
     0
100
AcDbLine
 10
90.42021257379648
 20
282.2157880095248
 30
0.0
 11
94.28089731014916
 21
273.3734428003989
 31
0.0
  0
LINE
  5
C9
330
1F
100
AcDbEntity
  8
0
  6
SLD-Durchgehend
 62
   167
370
     0
100
AcDbLine
 10
94.28089731014916
 20
273.3734428003989
 30
0.0
 11
92.63762961641775
 21
273.3734428003989
 31
0.0
  0
LINE
  5
CA
330
1F
100
AcDbEntity
  8
0
  6
SLD-Durchgehend
 62
   167
370
     0
100
AcDbLine
 10
92.63762961641775
 20
273.3734428003989
 30
0.0
 11
91.66470783821346
 21
275.6017807279569
 31
0.0
  0
LINE
  5
CB
330
1F
100
AcDbEntity
  8
0
  6
SLD-Durchgehend
 62
   167
370
     0
100
AcDbLine
 10
91.66470783821346
 20
275.6017807279569
 30
0.0
 11
88.70755739040914
 21
275.601780727957
 31
0.0
  0
LINE
  5
CC
330
1F
100
AcDbEntity
  8
0
  6
SLD-Durchgehend
 62
   167
370
     0
100
AcDbLine
 10
88.70755739040914
 20
275.601780727957
 30
0.0
 11
87.7440337582911
 21
273.3734428003989
 31
0.0
  0
LINE
  5
CD
330
1F
100
AcDbEntity
  8
0
  6
SLD-Durchgehend
 62
   167
370
     0
100
AcDbLine
 10
87.7440337582911
 20
273.3734428003989
 30
0.0
 11
86.99282566972819
 21
273.3734428003989
 31
0.0
  0
LINE
  5
CE
330
1F
100
AcDbEntity
  8
0
  6
SLD-Durchgehend
 62
   167
370
     0
100
AcDbLine
 10
88.96474690220585
 20
276.3201003956139
 30
0.0
 11
90.07590886653846
 21
279.0745300536779
 31
0.0
  0
LINE
  5
CF
330
1F
100
AcDbEntity
  8
0
  6
SLD-Durchgehend
 62
   167
370
     0
100
AcDbLine
 10
90.07590886653846
 20
279.0745300536779
 30
0.0
 11
91.35922268450011
 21
276.3201003956139
 31
0.0
  0
LINE
  5
D0
330
1F
100
AcDbEntity
  8
0
  6
SLD-Durchgehend
 62
   167
370
     0
100
AcDbLine
 10
91.35922268450011
 20
276.3201003956139
 30
0.0
 11
88.96474690220585
 21
276.3201003956139
 31
0.0
  0
LINE
  5
D1
330
1F
100
AcDbEntity
  8
0
  6
SLD-Durchgehend
 62
   167
370
     0
100
AcDbLine
 10
97.68189076323743
 20
273.3734428003989
 30
0.0
 11
94.90408003805814
 21
273.3734428003989
 31
0.0
  0
LINE
  5
D2
330
1F
100
AcDbEntity
  8
0
  6
SLD-Durchgehend
 62
   167
370
     0
100
AcDbLine
 10
94.90408003805814
 20
273.3734428003989
 30
0.0
 11
94.90408003805814
 21
280.6355769459619
 31
0.0
  0
LINE
  5
D3
330
1F
100
AcDbEntity
  8
0
  6
SLD-Durchgehend
 62
   167
370
     0
100
AcDbLine
 10
94.90408003805814
 20
280.6355769459619
 30
0.0
 11
97.4314880670498
 21
280.6355769459619
 31
0.0
  0
LINE
  5
D4
330
1F
100
AcDbEntity
  8
0
  6
SLD-Durchgehend
 62
   167
370
     0
100
AcDbLine
 10
97.43698163251602
 20
273.7930824352275
 30
0.0
 11
95.92023033985875
 21
273.7930824352275
 31
0.0
  0
LINE
  5
D5
330
1F
100
AcDbEntity
  8
0
  6
SLD-Durchgehend
 62
   167
370
     0
100
AcDbLine
 10
95.92023033985875
 20
273.7930824352275
 30
0.0
 11
95.92023033985872
 21
280.2044182244521
 31
0.0
  0
LINE
  5
D6
330
1F
100
AcDbEntity
  8
0
  6
SLD-Durchgehend
 62
   167
370
     0
100
AcDbLine
 10
95.92023033985872
 20
280.2044182244521
 30
0.0
 11
97.55797563739654
 21
280.2044182244521
 31
0.0
  0
LINE
  5
D7
330
1F
100
AcDbEntity
  8
0
  6
SLD-Durchgehend
 62
   167
370
     0
100
AcDbLine
 10
99.48350513667017
 20
277.52473450493
 30
0.0
 11
99.48168056395426
 21
276.2844699099422
 31
0.0
  0
LINE
  5
D8
330
1F
100
AcDbEntity
  8
0
  6
SLD-Durchgehend
 62
   167
370
     0
100
AcDbLine
 10
102.7025929073066
 20
280.2044182244521
 30
0.0
 11
105.395608928128
 21
280.2044182244521
 31
0.0
  0
LINE
  5
D9
330
1F
100
AcDbEntity
  8
0
  6
SLD-Durchgehend
 62
   167
370
     0
100
AcDbLine
 10
105.395608928128
 20
280.2044182244521
 30
0.0
 11
105.395608928128
 21
280.6355769459619
 31
0.0
  0
LINE
  5
DA
330
1F
100
AcDbEntity
  8
0
  6
SLD-Durchgehend
 62
   167
370
     0
100
AcDbLine
 10
105.395608928128
 20
280.6355769459619
 30
0.0
 11
101.6109934837646
 21
280.6355769459619
 31
0.0
  0
LINE
  5
DB
330
1F
100
AcDbEntity
  8
0
  6
SLD-Durchgehend
 62
   167
370
     0
100
AcDbLine
 10
101.6109934837646
 20
280.6355769459619
 30
0.0
 11
101.6109934837646
 21
273.3734428003989
 31
0.0
  0
LINE
  5
DC
330
1F
100
AcDbEntity
  8
0
  6
SLD-Durchgehend
 62
   167
370
     0
100
AcDbLine
 10
101.6109934837646
 20
273.3734428003989
 30
0.0
 11
105.5233596604272
 21
273.3734428003989
 31
0.0
  0
LINE
  5
DD
330
1F
100
AcDbEntity
  8
0
  6
SLD-Durchgehend
 62
   167
370
     0
100
AcDbLine
 10
105.5233596604272
 20
273.3734428003989
 30
0.0
 11
105.5233596604272
 21
273.873527007331
 31
0.0
  0
LINE
  5
DE
330
1F
100
AcDbEntity
  8
0
  6
SLD-Durchgehend
 62
   167
370
     0
100
AcDbLine
 10
105.5233596604272
 20
273.873527007331
 30
0.0
 11
102.7025929073066
 21
273.873527007331
 31
0.0
  0
LINE
  5
DF
330
1F
100
AcDbEntity
  8
0
  6
SLD-Durchgehend
 62
   167
370
     0
100
AcDbLine
 10
102.7025929073066
 20
273.873527007331
 30
0.0
 11
102.7025929073066
 21
276.8349926600611
 31
0.0
  0
LINE
  5
E0
330
1F
100
AcDbEntity
  8
0
  6
SLD-Durchgehend
 62
   167
370
     0
100
AcDbLine
 10
102.7025929073066
 20
276.8349926600611
 30
0.0
 11
105.2199516712167
 21
276.8349926600611
 31
0.0
  0
LINE
  5
E1
330
1F
100
AcDbEntity
  8
0
  6
SLD-Durchgehend
 62
   167
370
     0
100
AcDbLine
 10
105.2199516712167
 20
276.8349926600611
 30
0.0
 11
105.2199516712167
 21
277.3282234669438
 31
0.0
  0
LINE
  5
E2
330
1F
100
AcDbEntity
  8
0
  6
SLD-Durchgehend
 62
   167
370
     0
100
AcDbLine
 10
105.2199516712167
 20
277.3282234669438
 30
0.0
 11
102.7025929073066
 21
277.3282234669438
 31
0.0
  0
LINE
  5
E3
330
1F
100
AcDbEntity
  8
0
  6
SLD-Durchgehend
 62
   167
370
     0
100
AcDbLine
 10
102.7025929073066
 20
277.3282234669438
 30
0.0
 11
102.7025929073066
 21
280.2044182244521
 31
0.0
  0
LINE
  5
E4
330
1F
100
AcDbEntity
  8
0
  6
SLD-Durchgehend
 62
   167
370
     0
100
AcDbLine
 10
106.0254328358759
 20
273.3734428003989
 30
0.0
 11
106.0254328358759
 21
280.6355769459619
 31
0.0
  0
LINE
  5
E5
330
1F
100
AcDbEntity
  8
0
  6
SLD-Durchgehend
 62
   167
370
     0
100
AcDbLine
 10
106.0254328358759
 20
280.6355769459619
 30
0.0
 11
107.2768912341534
 21
280.6355769459619
 31
0.0
  0
LINE
  5
E6
330
1F
100
AcDbEntity
  8
0
  6
SLD-Durchgehend
 62
   167
370
     0
100
AcDbLine
 10
107.2768912341534
 20
280.6355769459619
 30
0.0
 11
111.0456510082763
 21
275.7735891457576
 31
0.0
  0
LINE
  5
E7
330
1F
100
AcDbEntity
  8
0
  6
SLD-Durchgehend
 62
   167
370
     0
100
AcDbLine
 10
111.0456510082763
 20
275.7735891457576
 30
0.0
 11
111.0456510082763
 21
280.6355769459619
 31
0.0
  0
LINE
  5
E8
330
1F
100
AcDbEntity
  8
0
  6
SLD-Durchgehend
 62
   167
370
     0
100
AcDbLine
 10
111.0456510082763
 20
280.6355769459619
 30
0.0
 11
111.7361108142225
 21
280.6355769459619
 31
0.0
  0
LINE
  5
E9
330
1F
100
AcDbEntity
  8
0
  6
SLD-Durchgehend
 62
   167
370
     0
100
AcDbLine
 10
111.7361108142225
 20
280.6355769459619
 30
0.0
 11
111.7361108142225
 21
273.3734428003989
 31
0.0
  0
LINE
  5
EA
330
1F
100
AcDbEntity
  8
0
  6
SLD-Durchgehend
 62
   167
370
     0
100
AcDbLine
 10
111.7361108142225
 20
273.3734428003989
 30
0.0
 11
111.0456510082763
 21
273.3734428003989
 31
0.0
  0
LINE
  5
EB
330
1F
100
AcDbEntity
  8
0
  6
SLD-Durchgehend
 62
   167
370
     0
100
AcDbLine
 10
111.0456510082763
 20
273.3734428003989
 30
0.0
 11
106.65835432466
 21
279.0333904304077
 31
0.0
  0
LINE
  5
EC
330
1F
100
AcDbEntity
  8
0
  6
SLD-Durchgehend
 62
   167
370
     0
100
AcDbLine
 10
106.65835432466
 20
279.0333904304077
 30
0.0
 11
106.65835432466
 21
273.3734428003989
 31
0.0
  0
LINE
  5
ED
330
1F
100
AcDbEntity
  8
0
  6
SLD-Durchgehend
 62
   167
370
     0
100
AcDbLine
 10
106.65835432466
 20
273.3734428003989
 30
0.0
 11
106.0254328358759
 21
273.3734428003989
 31
0.0
  0
LINE
  5
EE
330
1F
100
AcDbEntity
  8
0
  6
SLD-Durchgehend
 62
   167
370
     0
100
AcDbLine
 10
113.5629523841218
 20
280.0643874045686
 30
0.0
 11
112.2143042645967
 21
280.0643874045686
 31
0.0
  0
LINE
  5
EF
330
1F
100
AcDbEntity
  8
0
  6
SLD-Durchgehend
 62
   167
370
     0
100
AcDbLine
 10
112.2143042645967
 20
280.0643874045686
 30
0.0
 11
112.2143042645967
 21
280.6355769459619
 31
0.0
  0
LINE
  5
F0
330
1F
100
AcDbEntity
  8
0
  6
SLD-Durchgehend
 62
   167
370
     0
100
AcDbLine
 10
112.2143042645967
 20
280.6355769459619
 30
0.0
 11
116.2960224493254
 21
280.6355769459619
 31
0.0
  0
LINE
  5
F1
330
1F
100
AcDbEntity
  8
0
  6
SLD-Durchgehend
 62
   167
370
     0
100
AcDbLine
 10
116.2960224493254
 20
280.6355769459619
 30
0.0
 11
116.2960224493254
 21
280.0643874045686
 31
0.0
  0
LINE
  5
F2
330
1F
100
AcDbEntity
  8
0
  6
SLD-Durchgehend
 62
   167
370
     0
100
AcDbLine
 10
116.2960224493254
 20
280.0643874045686
 30
0.0
 11
114.8000262031087
 21
280.0643874045686
 31
0.0
  0
LINE
  5
F3
330
1F
100
AcDbEntity
  8
0
  6
SLD-Durchgehend
 62
   167
370
     0
100
AcDbLine
 10
114.8000262031087
 20
280.0643874045686
 30
0.0
 11
114.8000262031087
 21
273.3734428003989
 31
0.0
  0
LINE
  5
F4
330
1F
100
AcDbEntity
  8
0
  6
SLD-Durchgehend
 62
   167
370
     0
100
AcDbLine
 10
114.8000262031087
 20
273.3734428003989
 30
0.0
 11
113.5629523841218
 21
273.3734428003989
 31
0.0
  0
LINE
  5
F5
330
1F
100
AcDbEntity
  8
0
  6
SLD-Durchgehend
 62
   167
370
     0
100
AcDbLine
 10
113.5629523841218
 20
273.3734428003989
 30
0.0
 11
113.5629523841218
 21
280.0643874045686
 31
0.0
  0
LINE
  5
F6
330
1F
100
AcDbEntity
  8
0
  6
SLD-Durchgehend
 62
   161
370
     0
100
AcDbLine
 10
67.55459396500002
 20
269.204158640707
 30
0.0
 11
116.7404722183219
 21
269.204158640707
 31
0.0
  0
LINE
  5
F7
330
1F
100
AcDbEntity
  8
0
  6
SLD-Durchgehend
 62
   161
370
     0
100
AcDbLine
 10
67.55459396500002
 20
269.204158640707
 30
0.0
 11
67.55459396500002
 21
272.1252413666685
 31
0.0
  0
LINE
  5
F8
330
1F
100
AcDbEntity
  8
0
  6
SLD-Durchgehend
 62
   161
370
     0
100
AcDbLine
 10
67.55459396500002
 20
272.1252413666685
 30
0.0
 11
116.7404722183219
 21
272.1252413666685
 31
0.0
  0
LINE
  5
F9
330
1F
100
AcDbEntity
  8
0
  6
SLD-Durchgehend
 62
   161
370
     0
100
AcDbLine
 10
116.7404722183219
 20
269.204158640707
 30
0.0
 11
116.7404722183219
 21
272.1252413666685
 31
0.0
  0
LINE
  5
FA
330
1F
100
AcDbEntity
  8
0
  6
SLD-Durchgehend
 62
     7
370
     0
100
AcDbLine
 10
-0.206362725450937
 20
0.0654709418837496
 30
0.0
 11
420.2063627254508
 21
0.0654709418837496
 31
0.0
  0
LINE
  5
FB
330
1F
100
AcDbEntity
  8
0
  6
SLD-Durchgehend
 62
     7
370
     0
100
AcDbLine
 10
-0.206362725450937
 20
0.0654709418837496
 30
0.0
 11
-0.206362725450937
 21
297.2380761523045
 31
0.0
  0
LINE
  5
FC
330
1F
100
AcDbEntity
  8
0
  6
SLD-Durchgehend
 62
     7
370
     0
100
AcDbLine
 10
-0.206362725450937
 20
297.2380761523045
 30
0.0
 11
420.2063627254508
 21
297.2380761523045
 31
0.0
  0
LINE
  5
FD
330
1F
100
AcDbEntity
  8
0
  6
SLD-Durchgehend
 62
     7
370
     0
100
AcDbLine
 10
420.2063627254508
 20
0.0654709418837496
 30
0.0
 11
420.2063627254508
 21
297.2380761523045
 31
0.0
  0
CIRCLE
  5
FE
330
1F
100
AcDbEntity
  8
0
  6
SLD-Durchgehend
 62
     7
370
    15
100
AcDbCircle
 10
99.76462403765446
 20
196.9195093670431
 30
0.0
 40
3.250000000000015
  0
CIRCLE
  5
FF
330
1F
100
AcDbEntity
  8
0
  6
SLD-Durchgehend
 62
     7
370
    15
100
AcDbCircle
 10
249.7646240376544
 20
196.9195093670431
 30
0.0
 40
3.249999999999939
  0
CIRCLE
  5
100
330
1F
100
AcDbEntity
  8
0
  6
SLD-Durchgehend
 62
     7
370
    15
100
AcDbCircle
 10
249.7646240376544
 20
111.9195093670431
 30
0.0
 40
3.249999999999965
  0
CIRCLE
  5
101
330
1F
100
AcDbEntity
  8
0
  6
SLD-Durchgehend
 62
     7
370
    15
100
AcDbCircle
 10
107.7646240376545
 20
138.9195093670431
 30
0.0
 40
15.49999999999999
  0
ARC
  5
102
330
1F
100
AcDbEntity
  8
0
  6
SLD-Durchgehend
 62
   167
370
     0
100
AcDbCircle
 10
70.35679338626319
 20
275.7462580543552
 30
0.0
 40
2.38946736218086
100
AcDbArc
 50
183.2744033539603
 51
276.7682162952905
  0
CIRCLE
  5
103
330
1F
100
AcDbEntity
  8
0
  6
SLD-Durchgehend
 62
     7
370
    15
100
AcDbCircle
 10
158.7646240376545
 20
138.9195093670431
 30
0.0
 40
4.397454957129025
  0
ARC
  5
104
330
1F
100
AcDbEntity
  8
0
  6
SLD-Durchgehend
 62
   167
370
     0
100
AcDbCircle
 10
70.93443758994256
 20
275.7007453397961
 30
0.0
 40
2.346055331016672
100
AcDbArc
 50
262.7507816365769
 51
0.0
  0
CIRCLE
  5
105
330
1F
100
AcDbEntity
  8
0
  6
SLD-Durchgehend
 62
     7
370
    15
100
AcDbCircle
 10
107.7646240376545
 20
138.9195093670431
 30
0.0
 40
8.500000000000002
  0
ARC
  5
106
330
1F
100
AcDbEntity
  8
0
  6
SLD-Durchgehend
 62
   167
370
     0
100
AcDbCircle
 10
83.78635250494479
 20
278.6743253150823
 30
0.0
 40
1.606469699691557
100
AcDbArc
 50
319.3073102605927
 51
90.38657726167897
  0
ARC
  5
107
330
1F
100
AcDbEntity
  8
0
  6
SLD-Durchgehend
 62
     7
370
     0
100
AcDbCircle
 10
107.7646240376545
 20
138.9195093670431
 30
0.0
 40
10.00000000000006
100
AcDbArc
 50
180.0
 51
90.0
  0
ARC
  5
108
330
1F
100
AcDbEntity
  8
0
  6
SLD-Durchgehend
 62
   167
370
     0
100
AcDbCircle
 10
84.05476242669039
 20
278.4435159362685
 30
0.0
 40
1.252468491445163
100
AcDbArc
 50
286.8193506910699
 51
319.3073102605903
  0
ARC
  5
109
330
1F
100
AcDbEntity
  8
0
  6
SLD-Durchgehend
 62
     7
370
    15
100
AcDbCircle
 10
107.7646240376545
 20
170.919509367043
 30
0.0
 40
8.500000000000016
100
AcDbArc
 50
304.5603217799986
 51
235.4396782200028
  0
ARC
  5
10A
330
1F
100
AcDbEntity
  8
0
  6
SLD-Durchgehend
 62
     7
370
    15
100
AcDbCircle
 10
107.7646240376545
 20
170.919509367043
 30
0.0
 40
10.50000000000002
100
AcDbArc
 50
318.1896851042222
 51
221.8103148957793
  0
CIRCLE
  5
10B
330
1F
100
AcDbEntity
  8
0
  6
SLD-Durchgehend
 62
     7
370
    15
100
AcDbCircle
 10
107.7646240376545
 20
166.9195093670431
 30
0.0
 40
1.999999999999995
  0
CIRCLE
  5
10C
330
1F
100
AcDbEntity
  8
0
  6
SLD-Durchgehend
 62
     7
370
    15
100
AcDbCircle
 10
107.7646240376545
 20
174.9195093670431
 30
0.0
 40
4.499999999999998
  0
CIRCLE
  5
10D
330
1F
100
AcDbEntity
  8
0
  6
SLD-Durchgehend
 62
     7
370
    15
100
AcDbCircle
 10
107.7646240376545
 20
166.9195093670431
 30
0.0
 40
0.8266381366865598
  0
CIRCLE
  5
10E
330
1F
100
AcDbEntity
  8
0
  6
SLD-Durchgehend
 62
     7
370
    15
100
AcDbCircle
 10
107.7646240376545
 20
177.7071676155157
 30
0.0
 40
0.7499999999999893
  0
CIRCLE
  5
10F
330
1F
100
AcDbEntity
  8
0
  6
SLD-Durchgehend
 62
     7
370
    15
100
AcDbCircle
 10
110.2646240376545
 20
173.9195093670431
 30
0.0
 40
0.7499999999999893
  0
CIRCLE
  5
110
330
1F
100
AcDbEntity
  8
0
  6
SLD-Durchgehend
 62
     7
370
    15
100
AcDbCircle
 10
105.2646240376545
 20
173.9195093670431
 30
0.0
 40
0.7499999999999893
  0
ARC
  5
111
330
1F
100
AcDbEntity
  8
0
  6
SLD-Durchgehend
 62
   167
370
     0
100
AcDbCircle
 10
83.08094263718746
 20
280.6097222339273
 30
0.0
 40
3.620687694618157
100
AcDbArc
 50
273.067720845746
 51
291.6572639856843
  0
ARC
  5
112
330
1F
100
AcDbEntity
  8
0
  6
SLD-Durchgehend
 62
   167
370
     0
100
AcDbCircle
 10
96.66766486461148
 20
277.5330193765246
 30
0.0
 40
2.815852460063409
100
AcDbArc
 50
359.8314226800641
 51
71.56805304731449
  0
ARC
  5
113
330
1F
100
AcDbEntity
  8
0
  6
SLD-Durchgehend
 62
   167
370
     0
100
AcDbCircle
 10
97.12782166876535
 20
276.1315551703393
 30
0.0
 40
2.358820598529658
100
AcDbArc
 50
277.5311668961522
 51
3.716907283936426
  0
ARC
  5
114
330
1F
100
AcDbEntity
  8
0
  6
SLD-Durchgehend
 62
   167
370
     0
100
AcDbCircle
 10
84.54948940670964
 20
278.4904657697343
 30
0.0
 40
2.148852433026932
100
AcDbArc
 50
358.4386898251176
 51
86.6185254404857
  0
ARC
  5
115
330
1F
100
AcDbEntity
  8
0
  6
SLD-Durchgehend
 62
   167
370
     0
100
AcDbCircle
 10
85.06251348501185
 20
278.5835631876254
 30
0.0
 40
1.642047994076171
100
AcDbArc
 50
303.4181508353636
 51
354.7010698856835
  0
ARC
  5
116
330
1F
100
AcDbEntity
  8
0
  6
SLD-Durchgehend
 62
   167
370
     0
100
AcDbCircle
 10
82.53948631176733
 20
282.4072983909861
 30
0.0
 40
6.223163253742723
100
AcDbArc
 50
290.0813714443803
 51
303.4181508353624
  0
SPLINE
  5
117
330
1F
100
AcDbEntity
  8
0
  6
SLD-Durchgehend
 62
     7
370
    15
100
AcDbSpline
210
0.0
220
0.0
230
1.0
 70
     8
 71
     3
 72
     9
 73
     5
 74
     0
 42
0.00000001
 43
0.00000001
 40
0.0
 40
0.0
 40
0.0
 40
0.0
 40
0.6450628228510585
 40
1.0
 40
1.0
 40
1.0
 40
1.0
 10
251.2296153546054
 20
141.9195093670431
 30
0.0
 10
250.1636209842721
 20
141.3144994290426
 30
0.0
 10
248.7274227919382
 20
137.8142283080253
 30
0.0
 10
251.6344522527045
 20
137.0527553703764
 30
0.0
 10
251.2288540425891
 20
135.9195093670431
 30
0.0
  0
SPLINE
  5
118
330
1F
100
AcDbEntity
  8
0
  6
SLD-Durchgehend
 62
     7
370
    15
100
AcDbSpline
210
0.0
220
0.0
230
1.0
 70
     8
 71
     2
 72
     6
 73
     3
 74
     0
 42
0.00000001
 43
0.00000001
 40
0.0
 40
0.0
 40
0.0
 40
1.0
 40
1.0
 40
1.0
 10
251.2296153546054
 20
141.9195093670431
 30
0.0
 10
252.3811515524735
 20
139.5380787239552
 30
0.0
 10
250.7488303948122
 20
137.3622824235335
 30
0.0
  0
SPLINE
  5
119
330
1F
100
AcDbEntity
  8
0
  6
SLD-Durchgehend
 62
     7
370
    15
100
AcDbSpline
210
0.0
220
0.0
230
1.0
 70
     8
 71
     3
 72
    17
 73
    13
 74
     0
 42
0.00000001
 43
0.00000001
 40
0.0
 40
0.0
 40
0.0
 40
0.0
 40
0.1442819705180304
 40
0.1896617585103229
 40
0.2540812374036553
 40
0.3291205527408227
 40
0.4293573226047703
 40
0.5117788604929355
 40
0.6283297486132522
 40
0.7432776242899022
 40
0.812167261193657
 40
1.0
 40
1.0
 40
1.0
 40
1.0
 10
151.3556143088685
 20
150.9195093670431
 30
0.0
 10
151.7401052791147
 20
149.9202442008688
 30
0.0
 10
151.2777910912624
 20
147.6473206162684
 30
0.0
 10
153.1259021288859
 20
146.4014128102029
 30
0.0
 10
154.1752648027761
 20
144.7532765585829
 30
0.0
 10
152.3291872211319
 20
143.1922614700802
 30
0.0
 10
150.8887496744568
 20
141.1979986784219
 30
0.0
 10
152.2974660238307
 20
138.6154179507552
 30
0.0
 10
151.2156471064167
 20
135.9932904514165
 30
0.0
 10
150.9252585533964
 20
133.1750383369616
 30
0.0
 10
153.0216569880368
 20
130.6012009344417
 30
0.0
 10
154.4155596864971
 20
128.7486805986741
 30
0.0
 10
153.7168573924099
 20
126.9195093670431
 30
0.0
  0
SPLINE
  5
11A
330
1F
100
AcDbEntity
  8
0
  6
SLD-Durchgehend
 62
   167
370
     0
100
AcDbSpline
210
0.0
220
0.0
230
1.0
 70
     8
 71
     3
 72
    12
 73
     8
 74
     0
 42
0.00000001
 43
0.00000001
 40
0.0
 40
0.0
 40
0.0
 40
0.0
 40
0.3563092969871389
 40
0.5018774403507527
 40
0.6510698945260066
 40
0.7863552576303978
 40
1.0
 40
1.0
 40
1.0
 40
1.0
 10
95.0031113135428
 20
233.5857773467635
 30
0.0
 10
96.27208475006871
 20
233.4539854809691
 30
0.0
 10
98.15389131118931
 20
232.3223966815325
 30
0.0
 10
98.61830737264735
 20
229.9246804986293
 30
0.0
 10
98.47742508306085
 20
228.3120509473765
 30
0.0
 10
97.312568292695
 20
226.7885563034224
 30
0.0
 10
96.02431816920938
 20
226.3919105084073
 30
0.0
 10
95.25351400973045
 20
226.3236432012005
 30
0.0
  0
SPLINE
  5
11B
330
1F
100
AcDbEntity
  8
0
  6
SLD-Durchgehend
 62
   167
370
     0
100
AcDbSpline
210
0.0
220
0.0
230
1.0
 70
     8
 71
     3
 72
    13
 73
     9
 74
     0
 42
0.00000001
 43
0.00000001
 40
0.0
 40
0.0
 40
0.0
 40
0.0
 40
0.3386083836601357
 40
0.4524256945443874
 40
0.6001864542124674
 40
0.6914936036103495
 40
0.779658469561219
 40
1.0
 40
1.0
 40
1.0
 40
1.0
 10
66.8652470175729
 20
228.5599768194977
 30
0.0
 10
66.92246466512493
 20
228.1244047512179
 30
0.0
 10
67.1107592920245
 20
227.1366396810218
 30
0.0
 10
68.07482051897898
 20
226.8152119482696
 30
0.0
 10
68.64064621022669
 20
226.8112710998896
 30
0.0
 10
69.1861992365593
 20
226.8200154710778
 30
0.0
 10
69.74150866732302
 20
227.1686056788994
 30
0.0
 10
70.1036932113856
 20
227.6244876068274
 30
0.0
 10
70.1036932113856
 20
227.9869869784538
 30
0.0
  0
HATCH
  5
11C
330
1F
100
AcDbEntity
  8
SCHRAFFUR
100
AcDbHatch
 10
0.0
 20
0.0
 30
0.0
210
0.0
220
0.0
230
1.0
  2
SOLID
 70
     1
 71
     0
 91
        1
 92
        0
 93
        1
 72
     2
 10
107.7646240376545
 20
166.9195093670431
 40
0.8266381366865687
 50
0.0
 51
360.0
 73
     1
 97
        0
 75
     0
 76
     1
 98
        1
 10
0.0
 20
0.0
  0
HATCH
  5
11D
330
1F
100
AcDbEntity
  8
SCHRAFFUR
100
AcDbHatch
 10
0.0
 20
0.0
 30
0.0
210
0.0
220
0.0
230
1.0
  2
SOLID
 70
     1
 71
     0
 91
        1
 92
        0
 93
        1
 72
     2
 10
110.2646240376545
 20
173.9195093670431
 40
0.75
 50
0.0
 51
360.0
 73
     1
 97
        0
 75
     0
 76
     1
 98
        1
 10
0.0
 20
0.0
  0
HATCH
  5
11E
330
1F
100
AcDbEntity
  8
SCHRAFFUR
100
AcDbHatch
 10
0.0
 20
0.0
 30
0.0
210
0.0
220
0.0
230
1.0
  2
SOLID
 70
     1
 71
     0
 91
        1
 92
        0
 93
        1
 72
     2
 10
105.2646240376545
 20
173.9195093670431
 40
0.75
 50
0.0
 51
360.0
 73
     1
 97
        0
 75
     0
 76
     1
 98
        1
 10
0.0
 20
0.0
  0
HATCH
  5
11F
330
1F
100
AcDbEntity
  8
SCHRAFFUR
100
AcDbHatch
 10
0.0
 20
0.0
 30
0.0
210
0.0
220
0.0
230
1.0
  2
SOLID
 70
     1
 71
     0
 91
        1
 92
        0
 93
        1
 72
     2
 10
107.7646240376545
 20
177.7071676155157
 40
0.75
 50
0.0
 51
360.0
 73
     1
 97
        0
 75
     0
 76
     1
 98
        1
 10
0.0
 20
0.0
  0
HATCH
  5
120
330
1F
100
AcDbEntity
  8
SCHRAFFUR
100
AcDbHatch
 10
0.0
 20
0.0
 30
0.0
210
0.0
220
0.0
230
1.0
  2
ANSI37
 70
     0
 71
     0
 91
        2
 92
        0
 93
        1
 72
     2
 10
107.7646240376545
 20
138.9195093670431
 40
15.5
 50
0.0
 51
360.0
 73
     1
 97
        0
 92
        0
 93
        1
 72
     2
 10
107.7646240376545
 20
138.9195093670431
 40
8.500000000000014
 50
0.0
 51
360.0
 73
     1
 97
        0
 75
     0
 76
     1
 52
0.0
 41
0.3333333333333333
 77
     0
 78
     2
 53
44.99999999999995
 43
2.428376753506996
 44
47.04979959919842
 45
-0.7483546767557626
 46
0.74835467675576
 79
     0
 53
135.0000000000001
 43
2.428376753506996
 44
47.04979959919842
 45
-0.7483546767557627
 46
-0.7483546767557598
 79
     0
 98
        1
 10
0.0
 20
0.0
  0
HATCH
  5
121
330
1F
100
AcDbEntity
  8
SCHRAFFUR
100
AcDbHatch
 10
0.0
 20
0.0
 30
0.0
210
0.0
220
0.0
230
1.0
  2
ANSI37
 70
     0
 71
     0
 91
        1
 92
        0
 93
        1
 72
     2
 10
107.7646240376545
 20
138.9195093670431
 40
8.500000000000014
 50
0.0
 51
360.0
 73
     1
 97
        0
 75
     0
 76
     1
 52
0.0
 41
0.3333333333333333
 77
     0
 78
     2
 53
44.99999999999995
 43
2.428376753506996
 44
47.04979959919842
 45
-0.7483546767557626
 46
0.74835467675576
 79
     0
 53
135.0000000000001
 43
2.428376753506996
 44
47.04979959919842
 45
-0.7483546767557627
 46
-0.7483546767557598
 79
     0
 98
        1
 10
0.0
 20
0.0
  0
HATCH
  5
122
330
1F
100
AcDbEntity
  8
SCHRAFFUR
100
AcDbHatch
 10
0.0
 20
0.0
 30
0.0
210
0.0
220
0.0
230
1.0
  2
SOLID
 70
     1
 71
     0
 91
        1
 92
        0
 93
        6
 72
     1
 10
77.88442759590332
 20
273.7930824352275
 11
74.97898981818827
 21
273.7930824352275
 72
     1
 10
74.97898981818827
 20
273.7930824352275
 11
74.9789898181883
 21
280.6355769459619
 72
     1
 10
74.9789898181883
 20
280.6355769459619
 11
73.98489762406749
 21
280.6355769459619
 72
     1
 10
73.98489762406749
 20
280.6355769459619
 11
73.98489762406751
 21
273.3734428003989
 72
     1
 10
73.98489762406751
 20
273.3734428003989
 11
77.88442759590332
 21
273.3734428003989
 72
     1
 10
77.88442759590332
 20
273.3734428003989
 11
77.88442759590332
 21
273.7930824352275
 97
        0
 75
     0
 76
     1
 98
        1
 10
0.0
 20
0.0
  0
HATCH
  5
123
330
1F
100
AcDbEntity
  8
SCHRAFFUR
100
AcDbHatch
 10
0.0
 20
0.0
 30
0.0
210
0.0
220
0.0
230
1.0
  2
SOLID
 70
     1
 71
     0
 91
        1
 92
        0
 93
        9
 72
     4
 94
        3
 73
     1
 74
     0
 95
       13
 96
        9
 40
0.0
 40
0.0
 40
0.0
 40
0.0
 40
0.3386083836601357
 40
0.4524256945443874
 40
0.6001864542124674
 40
0.6914936036103495
 40
0.779658469561219
 40
1.0
 40
1.0
 40
1.0
 40
1.0
 10
69.2936237710799
 20
275.6097764186961
 42
1.0
 10
69.35084141863193
 20
275.1742043504163
 42
1.0
 10
69.53913604553149
 20
274.1864392802203
 42
1.0
 10
70.50319727248598
 20
273.865011547468
 42
1.0
 10
71.06902296373369
 20
273.861070699088
 42
1.0
 10
71.6145759900663
 20
273.8698150702762
 42
1.0
 10
72.16988542083001
 20
274.2184052780979
 42
1.0
 10
72.5320699648926
 20
274.6742872060258
 42
1.0
 10
72.5320699648926
 20
275.0367865776523
 42
1.0
 72
     1
 10
72.5320699648926
 20
275.0367865776523
 11
72.5320699648926
 21
280.6355769459619
 72
     1
 10
72.5320699648926
 20
280.6355769459619
 11
73.28049292095923
 21
280.6355769459619
 72
     1
 10
73.28049292095923
 20
280.6355769459619
 11
73.28049292095925
 21
275.7007453397961
 72
     2
 10
70.93443758994256
 20
275.7007453397961
 40
2.346055331016686
 50
0.0
 51
97.24921836342378
 73
     0
 72
     2
 10
70.35679338626319
 20
275.7462580543552
 40
2.389467362180863
 50
83.23178370471044
 51
176.7255966460391
 73
     0
 72
     1
 10
67.97122698851707
 20
275.6097764186961
 11
67.97122698851707
 21
280.6355769459619
 72
     1
 10
67.97122698851707
 20
280.6355769459619
 11
69.2936237710799
 21
280.6355769459619
 72
     1
 10
69.2936237710799
 20
280.6355769459619
 11
69.2936237710799
 21
275.6097764186961
 97
        0
 75
     0
 76
     1
 98
        1
 10
0.0
 20
0.0
  0
HATCH
  5
124
330
1F
100
AcDbEntity
  8
SCHRAFFUR
100
AcDbHatch
 10
0.0
 20
0.0
 30
0.0
210
0.0
220
0.0
230
1.0
  2
ANSI37
 70
     0
 71
     0
 91
        1
 92
        0
 93
        4
 72
     1
 10
228.7334343520156
 20
131.4195093670431
 11
228.7334343520156
 21
146.4195093670432
 72
     1
 10
228.7334343520156
 20
146.4195093670432
 11
171.7646240376544
 21
146.4195093670432
 72
     1
 10
171.7646240376544
 20
146.4195093670432
 11
171.7646240376544
 21
131.4195093670431
 72
     1
 10
171.7646240376544
 20
131.4195093670431
 11
228.7334343520156
 21
131.4195093670431
 97
        0
 75
     0
 76
     1
 52
0.0
 41
0.3333333333333333
 77
     0
 78
     2
 53
44.99999999999995
 43
2.428376753506996
 44
47.04979959919842
 45
-0.7483546767557626
 46
0.74835467675576
 79
     0
 53
135.0000000000001
 43
2.428376753506996
 44
47.04979959919842
 45
-0.7483546767557627
 46
-0.7483546767557598
 79
     0
 98
        1
 10
0.0
 20
0.0
  0
HATCH
  5
125
330
1F
100
AcDbEntity
  8
SCHRAFFUR
100
AcDbHatch
 10
0.0
 20
0.0
 30
0.0
210
0.0
220
0.0
230
1.0
  2
SOLID
 70
     1
 71
     0
 91
        1
 92
        0
 93
        8
 72
     1
 10
78.50407977915108
 20
273.3734428003989
 11
78.50407977915108
 21
280.071814738424
 72
     1
 10
78.50407977915108
 20
280.071814738424
 11
76.72631512603552
 21
280.071814738424
 72
     1
 10
76.72631512603552
 20
280.071814738424
 11
76.72631512603552
 21
280.6355769459619
 72
     1
 10
76.72631512603552
 20
280.6355769459619
 11
81.06141180378391
 21
280.6355769459619
 72
     1
 10
81.06141180378391
 20
280.6355769459619
 11
81.06141180378391
 21
280.1074411754518
 72
     1
 10
81.06141180378391
 20
280.1074411754518
 11
79.57464579516989
 21
280.1074411754518
 72
     1
 10
79.57464579516989
 20
280.1074411754518
 11
79.57464579516989
 21
273.3734428003989
 72
     1
 10
79.57464579516989
 20
273.3734428003989
 11
78.50407977915108
 21
273.3734428003989
 97
        0
 75
     0
 76
     1
 98
        1
 10
0.0
 20
0.0
  0
HATCH
  5
126
330
1F
100
AcDbEntity
  8
SCHRAFFUR
100
AcDbHatch
 10
0.0
 20
0.0
 30
0.0
210
0.0
220
0.0
230
1.0
  2
SOLID
 70
     1
 71
     0
 91
        2
 92
        0
 93
        7
 72
     1
 10
86.99282566972823
 20
273.3734428003989
 11
87.74403375829111
 21
273.3734428003989
 72
     1
 10
87.74403375829111
 20
273.3734428003989
 11
88.70755739040915
 21
275.601780727957
 72
     1
 10
88.70755739040915
 20
275.601780727957
 11
91.66470783821345
 21
275.601780727957
 72
     1
 10
91.66470783821345
 20
275.601780727957
 11
92.63762961641775
 21
273.3734428003989
 72
     1
 10
92.63762961641775
 20
273.3734428003989
 11
94.28089731014919
 21
273.3734428003988
 72
     1
 10
94.28089731014919
 20
273.3734428003988
 11
90.4202125737965
 21
282.2157880095249
 72
     1
 10
90.4202125737965
 20
282.2157880095249
 11
86.99282566972823
 21
273.3734428003989
 97
        0
 92
        0
 93
        3
 72
     1
 10
90.07590886653843
 20
279.0745300536778
 11
91.3592226845001
 21
276.320100395614
 72
     1
 10
91.3592226845001
 20
276.320100395614
 11
88.96474690220585
 21
276.320100395614
 72
     1
 10
88.96474690220585
 20
276.320100395614
 11
90.07590886653843
 21
279.0745300536778
 97
        0
 75
     0
 76
     1
 98
        1
 10
0.0
 20
0.0
  0
HATCH
  5
127
330
1F
100
AcDbEntity
  8
SCHRAFFUR
100
AcDbHatch
 10
0.0
 20
0.0
 30
0.0
210
0.0
220
0.0
230
1.0
  2
SOLID
 70
     1
 71
     0
 91
        1
 92
        0
 93
       14
 72
     2
 10
82.53948631176733
 20
282.4072983909861
 40
6.223163253742756
 50
56.58184916463859
 51
69.91862855562073
 73
     0
 72
     1
 10
84.67623647984921
 20
276.5624665198425
 11
86.56834475553646
 21
273.3734428003989
 72
     1
 10
86.56834475553646
 20
273.3734428003989
 11
85.25677332684107
 21
273.3734428003988
 72
     1
 10
85.25677332684107
 20
273.3734428003988
 11
83.27470826979636
 21
276.9942230620869
 72
     2
 10
83.08094263718746
 20
280.6097222339274
 40
3.620687694618202
 50
273.0677208457462
 51
291.6572639856842
 73
     1
 72
     2
 10
84.05476242669039
 20
278.4435159362685
 40
1.252468491445146
 50
286.8193506910709
 51
319.3073102605919
 73
     1
 72
     2
 10
83.7863525049448
 20
278.6743253150823
 40
1.606469699691556
 50
319.3073102605919
 51
450.3865772616801
 73
     1
 72
     1
 10
83.77551366217162
 20
280.2807584495496
 11
82.81423067709699
 21
280.2807584495497
 72
     1
 10
82.81423067709699
 20
280.2807584495497
 11
82.81423067709699
 21
273.3734428003989
 72
     1
 10
82.81423067709699
 20
273.3734428003989
 11
81.68187924509327
 21
273.3734428003989
 72
     1
 10
81.68187924509327
 20
273.3734428003989
 11
81.68187924509324
 21
280.6355769459619
 72
     1
 10
81.68187924509324
 20
280.6355769459619
 11
84.67623647984921
 21
280.6355769459619
 72
     2
 10
84.54948940670965
 20
278.4904657697344
 40
2.148852433026933
 50
273.3814745595147
 51
361.5613101748847
 73
     0
 72
     2
 10
85.06251348501185
 20
278.5835631876255
 40
1.642047994076174
 50
5.298930114315259
 51
56.58184916463532
 73
     0
 97
        0
 75
     0
 76
     1
 98
        1
 10
0.0
 20
0.0
  0
HATCH
  5
128
330
1F
100
AcDbEntity
  8
SCHRAFFUR
100
AcDbHatch
 10
0.0
 20
0.0
 30
0.0
210
0.0
220
0.0
230
1.0
  2
SOLID
 70
     1
 71
     0
 91
        2
 92
        0
 93
        4
 72
     4
 94
        3
 73
     1
 74
     0
 95
       12
 96
        8
 40
0.0
 40
0.0
 40
0.0
 40
0.0
 40
0.3563092969871389
 40
0.5018774403507527
 40
0.6510698945260066
 40
0.7863552576303978
 40
1.0
 40
1.0
 40
1.0
 40
1.0
 10
97.4314880670498
 20
280.6355769459619
 42
1.0
 10
98.70046150357571
 20
280.5037850801675
 42
1.0
 10
100.5822680646963
 20
279.3721962807309
 42
1.0
 10
101.0466841261543
 20
276.9744800978277
 42
1.0
 10
100.9058018365678
 20
275.3618505465749
 42
1.0
 10
99.740945046202
 20
273.8383559026208
 42
1.0
 10
98.45269492271638
 20
273.4417101076058
 42
1.0
 10
97.68189076323745
 20
273.3734428003989
 42
1.0
 72
     1
 10
97.68189076323745
 20
273.3734428003989
 11
94.90408003805815
 21
273.3734428003989
 72
     1
 10
94.90408003805815
 20
273.3734428003989
 11
94.90408003805815
 21
280.6355769459619
 72
     1
 10
94.90408003805815
 20
280.6355769459619
 11
97.4314880670498
 21
280.6355769459619
 97
        0
 92
        0
 93
        6
 72
     1
 10
95.92023033985875
 20
273.7930824352276
 11
97.43698163251602
 21
273.7930824352276
 72
     2
 10
97.12782166876536
 20
276.1315551703394
 40
2.358820598529603
 50
277.5311668961519
 51
363.7169072839358
 73
     1
 72
     1
 10
99.48168056395427
 20
276.2844699099422
 11
99.48350513667017
 21
277.5247345049301
 72
     2
 10
96.66766486461148
 20
277.5330193765247
 40
2.815852460063367
 50
359.8314226800633
 51
431.5680530473146
 73
     1
 72
     1
 10
97.55797563739655
 20
280.2044182244521
 11
95.92023033985873
 21
280.2044182244521
 72
     1
 10
95.92023033985873
 20
280.2044182244521
 11
95.92023033985875
 21
273.7930824352276
 97
        0
 75
     0
 76
     1
 98
        1
 10
0.0
 20
0.0
  0
HATCH
  5
129
330
1F
100
AcDbEntity
  8
SCHRAFFUR
100
AcDbHatch
 10
0.0
 20
0.0
 30
0.0
210
0.0
220
0.0
230
1.0
  2
SOLID
 70
     1
 71
     0
 91
        1
 92
        0
 93
       12
 72
     1
 10
102.7025929073066
 20
277.3282234669438
 11
102.7025929073066
 21
280.2044182244521
 72
     1
 10
102.7025929073066
 20
280.2044182244521
 11
105.395608928128
 21
280.2044182244521
 72
     1
 10
105.395608928128
 20
280.2044182244521
 11
105.395608928128
 21
280.6355769459619
 72
     1
 10
105.395608928128
 20
280.6355769459619
 11
101.6109934837647
 21
280.6355769459619
 72
     1
 10
101.6109934837647
 20
280.6355769459619
 11
101.6109934837647
 21
273.3734428003989
 72
     1
 10
101.6109934837647
 20
273.3734428003989
 11
105.5233596604272
 21
273.3734428003989
 72
     1
 10
105.5233596604272
 20
273.3734428003989
 11
105.5233596604272
 21
273.8735270073311
 72
     1
 10
105.5233596604272
 20
273.8735270073311
 11
102.7025929073066
 21
273.8735270073311
 72
     1
 10
102.7025929073066
 20
273.8735270073311
 11
102.7025929073066
 21
276.8349926600611
 72
     1
 10
102.7025929073066
 20
276.8349926600611
 11
105.2199516712167
 21
276.8349926600611
 72
     1
 10
105.2199516712167
 20
276.8349926600611
 11
105.2199516712167
 21
277.3282234669438
 72
     1
 10
105.2199516712167
 20
277.3282234669438
 11
102.7025929073066
 21
277.3282234669438
 97
        0
 75
     0
 76
     1
 98
        1
 10
0.0
 20
0.0
  0
HATCH
  5
12A
330
1F
100
AcDbEntity
  8
SCHRAFFUR
100
AcDbHatch
 10
0.0
 20
0.0
 30
0.0
210
0.0
220
0.0
230
1.0
  2
SOLID
 70
     1
 71
     0
 91
        1
 92
        0
 93
        8
 72
     1
 10
113.5629523841218
 20
280.0643874045687
 11
113.5629523841218
 21
273.3734428003989
 72
     1
 10
113.5629523841218
 20
273.3734428003989
 11
114.8000262031087
 21
273.3734428003989
 72
     1
 10
114.8000262031087
 20
273.3734428003989
 11
114.8000262031087
 21
280.0643874045687
 72
     1
 10
114.8000262031087
 20
280.0643874045687
 11
116.2960224493254
 21
280.0643874045687
 72
     1
 10
116.2960224493254
 20
280.0643874045687
 11
116.2960224493254
 21
280.6355769459619
 72
     1
 10
116.2960224493254
 20
280.6355769459619
 11
112.2143042645967
 21
280.6355769459619
 72
     1
 10
112.2143042645967
 20
280.6355769459619
 11
112.2143042645967
 21
280.0643874045687
 72
     1
 10
112.2143042645967
 20
280.0643874045687
 11
113.5629523841218
 21
280.0643874045687
 97
        0
 75
     0
 76
     1
 98
        1
 10
0.0
 20
0.0
  0
HATCH
  5
12B
330
1F
100
AcDbEntity
  8
SCHRAFFUR
100
AcDbHatch
 10
0.0
 20
0.0
 30
0.0
210
0.0
220
0.0
230
1.0
  2
SOLID
 70
     1
 71
     0
 91
        1
 92
        0
 93
       10
 72
     1
 10
106.65835432466
 20
273.3734428003989
 11
106.0254328358759
 21
273.3734428003989
 72
     1
 10
106.0254328358759
 20
273.3734428003989
 11
106.0254328358759
 21
280.6355769459619
 72
     1
 10
106.0254328358759
 20
280.6355769459619
 11
107.2768912341534
 21
280.6355769459619
 72
     1
 10
107.2768912341534
 20
280.6355769459619
 11
111.0456510082763
 21
275.7735891457576
 72
     1
 10
111.0456510082763
 20
275.7735891457576
 11
111.0456510082763
 21
280.6355769459619
 72
     1
 10
111.0456510082763
 20
280.6355769459619
 11
111.7361108142225
 21
280.6355769459619
 72
     1
 10
111.7361108142225
 20
280.6355769459619
 11
111.7361108142225
 21
273.3734428003989
 72
     1
 10
111.7361108142225
 20
273.3734428003989
 11
111.0456510082763
 21
273.3734428003989
 72
     1
 10
111.0456510082763
 20
273.3734428003989
 11
106.65835432466
 21
279.0333904304078
 72
     1
 10
106.65835432466
 20
279.0333904304078
 11
106.65835432466
 21
273.3734428003989
 97
        0
 75
     0
 76
     1
 98
        1
 10
0.0
 20
0.0
  0
HATCH
  5
12C
330
1F
100
AcDbEntity
  8
SCHRAFFUR
100
AcDbHatch
 10
0.0
 20
0.0
 30
0.0
210
0.0
220
0.0
230
1.0
  2
SOLID
 70
     1
 71
     0
 91
        1
 92
        0
 93
        4
 72
     1
 10
67.55459396500002
 20
269.2041586407071
 11
116.7404722183219
 21
269.2041586407071
 72
     1
 10
116.7404722183219
 20
269.2041586407071
 11
116.7404722183219
 21
272.1252413666687
 72
     1
 10
116.7404722183219
 20
272.1252413666687
 11
67.55459396500002
 21
272.1252413666685
 72
     1
 10
67.55459396500002
 20
272.1252413666685
 11
67.55459396500002
 21
269.2041586407071
 97
        0
 75
     0
 76
     1
 98
        1
 10
0.0
 20
0.0
  0
DIMENSION
  5
12D
330
1F
100
AcDbEntity
  8
BEMASSUNG
100
AcDbDimension
  2
*D1
 10
67.48463927855705
 20
226.9195093670431
 30
0.0
 11
67.48463927855705
 21
154.4195093670431
 31
0.0
 70
    32
 71
     2
 42
-1.0
 73
     0
 74
     0
 75
     0
  3
SLDDIMSTYLE0
100
AcDbAlignedDimension
 13
87.76462403765447
 23
81.91950936704309
 33
0.0
 14
87.76462403765447
 24
226.9195093670431
 34
0.0
 50
90.0000000000002
100
AcDbRotatedDimension
  0
DIMENSION
  5
139
330
1F
100
AcDbEntity
  8
BEMASSUNG
100
AcDbDimension
  2
*D2
 10
322.7646240376544
 20
247.2933301635117
 30
0.0
 11
205.2646240376544
 21
247.2933301635117
 31
0.0
 70
    32
 71
     2
 42
-1.0
 73
     0
 74
     0
 75
     0
  3
SLDDIMSTYLE0
100
AcDbAlignedDimension
 13
87.76462403765447
 23
226.9195093670431
 33
0.0
 14
322.7646240376544
 24
226.9195093670431
 34
0.0
100
AcDbRotatedDimension
  0
DIMENSION
  5
143
330
1F
100
AcDbEntity
  8
BEMASSUNG
100
AcDbDimension
  2
*D3
 10
87.76462403765449
 20
239.2605811623246
 30
0.0
 11
93.7646240376545
 21
239.2605811623246
 31
0.0
 70
    32
 71
     2
 42
-1.0
 73
     0
 74
     0
 75
     0
  3
SLDDIMSTYLE1
100
AcDbAlignedDimension
 13
99.76462403765446
 23
196.9195093670431
 33
0.0
 14
87.76462403765447
 24
226.9195093670431
 34
0.0
100
AcDbRotatedDimension
  0
DIMENSION
  5
150
330
1F
100
AcDbEntity
  8
BEMASSUNG
100
AcDbDimension
  2
*D4
 10
249.7646240376544
 20
239.2605811623246
 30
0.0
 11
174.7646240376545
 21
239.2605811623246
 31
0.0
 70
    32
 71
     2
 42
-1.0
 73
     0
 74
     0
 75
     0
  3
SLDDIMSTYLE0
100
AcDbAlignedDimension
 13
99.76462403765446
 23
196.9195093670431
 33
0.0
 14
249.7646240376544
 24
196.9195093670431
 34
0.0
100
AcDbRotatedDimension
  0
DIMENSION
  5
15A
330
1F
100
AcDbEntity
  8
BEMASSUNG
100
AcDbDimension
  2
*D5
 10
278.2034795289978
 20
111.9195093670431
 30
0.0
 11
278.2034795289978
 21
147.4379262007104
 31
0.0
 70
    32
 71
     2
 42
-1.0
 73
     0
 74
     0
 75
     0
  3
SLDDIMSTYLE0
100
AcDbAlignedDimension
 13
249.7646240376544
 23
196.9195093670431
 33
0.0
 14
249.7646240376544
 24
111.9195093670431
 34
0.0
 50
90.0000000000002
100
AcDbRotatedDimension
  0
MTEXT
  5
165
330
1F
100
AcDbEntity
  8
TEXT
100
AcDbMText
 10
109.2992777259489
 20
146.7406425500882
 30
0.0
 40
6.0
 41
0.0
 46
0.0
 71
     1
 72
     1
  1
L
  7
SLDTEXTSTYLE1
 73
     1
 44
1.0
  0
INSERT
  5
16C
330
1F
100
AcDbEntity
  8
TEXT
100
AcDbBlockReference
  2
SW_NOTE_0
 10
136.0555555555555
 20
274.6944444444445
 30
0.0
  0
MTEXT
  5
16D
330
1F
100
AcDbEntity
  8
TEXT
100
AcDbMText
 10
180.4041583166332
 20
72.57630070838914
 30
0.0
 40
5.0
 41
0.0
 46
0.0
 71
     1
 72
     1
  1
Achtung ! Wasseranschluss bei Druckwasserflasche nicht nötig
  7
SLDTEXTSTYLE1
 73
     1
 44
1.0
  0
MTEXT
  5
16E
330
1F
100
AcDbEntity
  8
TEXT
100
AcDbMText
 10
280.6685030821669
 20
136.9445278533018
 30
0.0
 40
3.5
 41
0.0
 46
0.0
 71
     1
 72
     1
  1
=                      =
  7
SLDTEXTSTYLE0
 11
-3.491481338843133E-15
 21
1.0
 31
0.0
 73
     1
 44
1.0
  0
MTEXT
  5
16F
330
1F
100
AcDbEntity
  8
TEXT
100
AcDbMText
 10
320.9907737287975
 20
4.454143550965473
 30
0.0
 40
1.3
 41
0.0
 46
0.0
 71
     1
 72
     1
  1
gespeichert unter: z:\\Shared Docs Benutzer\\P.Spötzl\\_2D-Installationspläne\\Anschlussbox U3000_U5000 EX 8256.dwg
  7
SLDTEXTSTYLE0
 73
     1
 44
1.0
  0
MTEXT
  5
170
330
1F
100
AcDbEntity
  8
TEXT
100
AcDbMText
 10
99.91216970005124
 20
110.617282538868
 30
0.0
 40
6.0
 41
0.0
 46
0.0
 71
     1
 72
     1
  1
Kugelhahn 
  7
SLDTEXTSTYLE1
 73
     1
 44
1.0
  0
LEADER
  5
172
330
1F
100
AcDbEntity
  8
TEXT
100
AcDbLeader
  3
SLDDIMSTYLE2
 76
     2
 10
155.6683238127527
 20
135.7969246976944
 30
0.0
 10
145.2783536072144
 20
111.8800785571142
 30
0.0
1001
ACAD
1000
DSTYLE
1002
{
1070
   176
1070
     0
1070
    77
1070
     0
1070
    40
1040
1.0
1070
   147
1040
0.0
1002
}
  0
MTEXT
  5
173
330
1F
100
AcDbEntity
  8
TEXT
100
AcDbMText
 10
177.863695900254
 20
145.7055760260285
 30
0.0
 40
5.5
 41
0.0
 46
0.0
 71
     1
 72
     1
  1
6 Luft
  7
SLDTEXTSTYLE1
 73
     1
 44
1.0
  0
MTEXT
  5
175
330
1F
100
AcDbEntity
  8
TEXT
100
AcDbMText
 10
67.59284991064301
 20
267.4838867560032
 30
0.0
 40
2.054
 41
0.0
 46
0.0
 71
     1
 72
     1
  1
Dental-Medizinische Geräte GmbH & Co. KG
  7
SLDTEXTSTYLE2
 73
     1
 44
1.0
  0
INSERT
  5
181
330
1F
100
AcDbEntity
  8
MITTELLINIEN
100
AcDbBlockReference
  2
SW_CENTERMARKSYMBOL_0
 10
107.7646240376545
 20
138.9195093670431
 30
0.0
  0
INSERT
  5
193
330
1F
100
AcDbEntity
  8
MITTELLINIEN
100
AcDbBlockReference
  2
SW_CENTERMARKSYMBOL_1
 10
99.76462403765446
 20
196.9195093670431
 30
0.0
  0
INSERT
  5
19F
330
1F
100
AcDbEntity
  8
MITTELLINIEN
100
AcDbBlockReference
  2
SW_CENTERMARKSYMBOL_2
 10
107.7646240376545
 20
170.919509367043
 30
0.0
  0
INSERT
  5
1A6
330
1F
100
AcDbEntity
  8
0
  6
SLD-Durchgehend
 62
     7
370
     0
100
AcDbBlockReference
  2
SW_DOWELSYMBOL_0
 10
99.76462403765446
 20
196.9195093670431
 30
0.0
  0
INSERT
  5
1AD
330
1F
100
AcDbEntity
  8
0
  6
SLD-Durchgehend
 62
     7
370
     0
100
AcDbBlockReference
  2
SW_DOWELSYMBOL_1
 10
249.7646240376544
 20
196.9195093670431
 30
0.0
  0
INSERT
  5
1B4
330
1F
100
AcDbEntity
  8
0
  6
SLD-Durchgehend
 62
     7
370
     0
100
AcDbBlockReference
  2
SW_DOWELSYMBOL_2
 10
249.7646240376544
 20
111.9195093670431
 30
0.0
  0
ENDSEC
  0
SECTION
  2
OBJECTS
  0
DICTIONARY
  5
C
330
0
100
AcDbDictionary
281
     1
  3
ACAD_COLOR
350
6C
  3
ACAD_GROUP
350
D
  3
ACAD_LAYOUT
350
1A
  3
ACAD_MATERIAL
350
6B
  3
ACAD_MLEADERSTYLE
350
1B6
  3
ACAD_MLINESTYLE
350
17
  3
ACAD_PLOTSETTINGS
350
19
  3
ACAD_PLOTSTYLENAME
350
E
  3
ACAD_SCALELIST
350
99
  3
ACAD_TABLESTYLE
350
92
  3
ACAD_VISUALSTYLE
350
2A
  3
AcDbVariableDictionary
350
59
  0
DICTIONARY
  5
260
330
1F
100
AcDbDictionary
280
     1
281
     1
  0
DICTIONARY
  5
6C
102
{ACAD_REACTORS
330
C
102
}
330
C
100
AcDbDictionary
281
     1
  0
DICTIONARY
  5
D
102
{ACAD_REACTORS
330
C
102
}
330
C
100
AcDbDictionary
281
     1
  0
DICTIONARY
  5
1A
102
{ACAD_REACTORS
330
C
102
}
330
C
100
AcDbDictionary
281
     1
  3
Layout1
350
74
  3
Layout2
350
26
  3
Model
350
22
  0
DICTIONARY
  5
6B
102
{ACAD_REACTORS
330
C
102
}
330
C
100
AcDbDictionary
281
     1
  0
DICTIONARY
  5
1B6
102
{ACAD_REACTORS
330
C
102
}
330
C
100
AcDbDictionary
281
     1
  0
DICTIONARY
  5
17
102
{ACAD_REACTORS
330
C
102
}
330
C
100
AcDbDictionary
281
     1
  3
Standard
350
18
  0
DICTIONARY
  5
19
102
{ACAD_REACTORS
330
C
102
}
330
C
100
AcDbDictionary
281
     1
  0
ACDBDICTIONARYWDFLT
  5
E
102
{ACAD_REACTORS
330
C
102
}
330
C
100
AcDbDictionary
281
     1
  3
Normal
350
F
100
AcDbDictionaryWithDefault
340
F
  0
DICTIONARY
  5
99
102
{ACAD_REACTORS
330
C
102
}
330
C
100
AcDbDictionary
281
     1
  3
A0
350
1B8
  3
A1
350
1B9
  3
A2
350
1BA
  3
A3
350
1BB
  3
A4
350
1BC
  3
A5
350
1BD
  3
A6
350
1BE
  3
A7
350
1BF
  3
A8
350
1C0
  3
A9
350
1C1
  3
B0
350
1C2
  3
B1
350
1C3
  3
B2
350
1C4
  3
B3
350
1C5
  3
B4
350
1C6
  3
B5
350
1C7
  3
B6
350
1C8
  3
B7
350
1C9
  3
B8
350
1CA
  3
B9
350
1CB
  3
C0
350
1CC
  3
C1
350
1CD
  3
C2
350
1CE
  3
C3
350
1CF
  3
C4
350
1D0
  3
C5
350
1D1
  3
C6
350
1D2
  3
C7
350
1D3
  3
C8
350
1D4
  3
C9
350
1D5
  3
D0
350
1D6
  3
D1
350
1D7
  3
D2
350
1D8
  0
DICTIONARY
  5
92
102
{ACAD_REACTORS
330
C
102
}
330
C
100
AcDbDictionary
281
     1
  3
Standard
350
243
  0
DICTIONARY
  5
2A
102
{ACAD_REACTORS
330
C
102
}
330
C
100
AcDbDictionary
281
     1
  3
2DWIREFRAME
350
2F
  3
3D HIDDEN
350
31
  3
3DWIREFRAME
350
30
  3
BASIC
350
32
  3
BRIGHTEN
350
36
  3
COLORCHANGE
350
3A
  3
CONCEPTUAL
350
34
  3
DIM
350
35
  3
FACEPATTERN
350
39
  3
FLAT
350
2B
  3
FLATWITHEDGES
350
2C
  3
GOURAUD
350
2D
  3
GOURAUDWITHEDGES
350
2E
  3
LINEPATTERN
350
38
  3
REALISTIC
350
33
  3
THICKEN
350
37
  0
DICTIONARY
  5
59
102
{ACAD_REACTORS
330
C
102
}
330
C
100
AcDbDictionary
281
     1
  3
CANNOSCALE
350
261
  3
CTABLESTYLE
350
244
  3
DIMASSOC
350
1DB
  3
HIDETEXT
350
245
  0
LAYOUT
  5
74
102
{ACAD_REACTORS
330
1A
102
}
330
1A
100
AcDbPlotSettings
  1

  2
none_device
  4
ISO_C5_(229.00_x_162.00_MM)
  6

 40
0.0
 41
0.0
 42
0.0
 43
0.0
 44
229.0
 45
162.0
 46
0.0
 47
0.0
 48
0.0
 49
0.0
140
0.0
141
0.0
142
1.0
143
1.0
 70
   688
 72
     1
 73
     0
 74
     5
  7

 75
    16
 76
     0
 77
     2
 78
   300
147
1.0
148
0.0
149
0.0
100
AcDbLayout
  1
Layout1
 70
     1
 71
     1
 10
0.0
 20
0.0
 11
420.0
 21
297.0
 12
0.0
 22
0.0
 32
0.0
 14
1.000000000000000E+20
 24
1.000000000000000E+20
 34
1.000000000000000E+20
 15
-1.000000000000000E+20
 25
-1.000000000000000E+20
 35
-1.000000000000000E+20
146
0.0
 13
0.0
 23
0.0
 33
0.0
 16
1.0
 26
0.0
 36
0.0
 17
0.0
 27
1.0
 37
0.0
 76
     0
330
73
  0
LAYOUT
  5
26
102
{ACAD_REACTORS
330
1A
102
}
330
1A
100
AcDbPlotSettings
  1

  2
none_device
  4
ISO_C5_(229.00_x_162.00_MM)
  6

 40
0.0
 41
0.0
 42
0.0
 43
0.0
 44
229.0
 45
162.0
 46
0.0
 47
0.0
 48
0.0
 49
0.0
140
0.0
141
0.0
142
1.0
143
1.0
 70
   688
 72
     1
 73
     0
 74
     5
  7

 75
    16
 76
     0
 77
     2
 78
   300
147
1.0
148
0.0
149
0.0
100
AcDbLayout
  1
Layout2
 70
     1
 71
     2
 10
0.0
 20
0.0
 11
0.0
 21
0.0
 12
0.0
 22
0.0
 32
0.0
 14
0.0
 24
0.0
 34
0.0
 15
0.0
 25
0.0
 35
0.0
146
0.0
 13
0.0
 23
0.0
 33
0.0
 16
1.0
 26
0.0
 36
0.0
 17
0.0
 27
1.0
 37
0.0
 76
     0
330
23
  0
LAYOUT
  5
22
102
{ACAD_REACTORS
330
1A
102
}
330
1A
100
AcDbPlotSettings
  1

  2
none_device
  4
ISO_C5_(229.00_x_162.00_MM)
  6

 40
0.0
 41
0.0
 42
0.0
 43
0.0
 44
229.0
 45
162.0
 46
0.0
 47
0.0
 48
0.0
 49
0.0
140
0.0
141
0.0
142
1.0
143
1.0
 70
 11952
 72
     1
 73
     0
 74
     0
  7

 75
    16
 76
     0
 77
     2
 78
   300
147
1.0
148
0.0
149
0.0
100
AcDbLayout
  1
Model
 70
     1
 71
     0
 10
0.0
 20
0.0
 11
420.0
 21
297.0
 12
0.0
 22
0.0
 32
0.0
 14
-0.206362725450937
 24
0.0654709418837496
 34
-0.0000000000017476
 15
420.2063627254508
 25
297.2380761523045
 35
0.0
146
0.0
 13
0.0
 23
0.0
 33
0.0
 16
1.0
 26
0.0
 36
0.0
 17
0.0
 27
1.0
 37
0.0
 76
     0
330
1F
331
97
  0
MLINESTYLE
  5
18
102
{ACAD_REACTORS
330
17
102
}
330
17
100
AcDbMlineStyle
  2
Standard
 70
     0
  3

 62
   256
 51
90.0
 52
90.0
 71
     2
 49
0.5
 62
   256
  6
BYLAYER
 49
-0.5
 62
   256
  6
BYLAYER
  0
ACDBPLACEHOLDER
  5
F
102
{ACAD_REACTORS
330
E
102
}
330
E
  0
SCALE
  5
1B8
102
{ACAD_REACTORS
330
99
102
}
330
99
100
AcDbScale
 70
     0
300
1:1
140
1.0
141
1.0
290
     1
  0
SCALE
  5
1B9
102
{ACAD_REACTORS
330
99
102
}
330
99
100
AcDbScale
 70
     0
300
1:2
140
1.0
141
2.0
290
     0
  0
SCALE
  5
1BA
102
{ACAD_REACTORS
330
99
102
}
330
99
100
AcDbScale
 70
     0
300
1:4
140
1.0
141
4.0
290
     0
  0
SCALE
  5
1BB
102
{ACAD_REACTORS
330
99
102
}
330
99
100
AcDbScale
 70
     0
300
1:5
140
1.0
141
5.0
290
     0
  0
SCALE
  5
1BC
102
{ACAD_REACTORS
330
99
102
}
330
99
100
AcDbScale
 70
     0
300
1:8
140
1.0
141
8.0
290
     0
  0
SCALE
  5
1BD
102
{ACAD_REACTORS
330
99
102
}
330
99
100
AcDbScale
 70
     0
300
1:10
140
1.0
141
10.0
290
     0
  0
SCALE
  5
1BE
102
{ACAD_REACTORS
330
99
102
}
330
99
100
AcDbScale
 70
     0
300
1:16
140
1.0
141
16.0
290
     0
  0
SCALE
  5
1BF
102
{ACAD_REACTORS
330
99
102
}
330
99
100
AcDbScale
 70
     0
300
1:20
140
1.0
141
20.0
290
     0
  0
SCALE
  5
1C0
102
{ACAD_REACTORS
330
99
102
}
330
99
100
AcDbScale
 70
     0
300
1:30
140
1.0
141
30.0
290
     0
  0
SCALE
  5
1C1
102
{ACAD_REACTORS
330
99
102
}
330
99
100
AcDbScale
 70
     0
300
1:40
140
1.0
141
40.0
290
     0
  0
SCALE
  5
1C2
102
{ACAD_REACTORS
330
99
102
}
330
99
100
AcDbScale
 70
     0
300
1:50
140
1.0
141
50.0
290
     0
  0
SCALE
  5
1C3
102
{ACAD_REACTORS
330
99
102
}
330
99
100
AcDbScale
 70
     0
300
1:100
140
1.0
141
100.0
290
     0
  0
SCALE
  5
1C4
102
{ACAD_REACTORS
330
99
102
}
330
99
100
AcDbScale
 70
     0
300
2:1
140
2.0
141
1.0
290
     0
  0
SCALE
  5
1C5
102
{ACAD_REACTORS
330
99
102
}
330
99
100
AcDbScale
 70
     0
300
4:1
140
4.0
141
1.0
290
     0
  0
SCALE
  5
1C6
102
{ACAD_REACTORS
330
99
102
}
330
99
100
AcDbScale
 70
     0
300
8:1
140
8.0
141
1.0
290
     0
  0
SCALE
  5
1C7
102
{ACAD_REACTORS
330
99
102
}
330
99
100
AcDbScale
 70
     0
300
10:1
140
10.0
141
1.0
290
     0
  0
SCALE
  5
1C8
102
{ACAD_REACTORS
330
99
102
}
330
99
100
AcDbScale
 70
     0
300
100:1
140
100.0
141
1.0
290
     0
  0
SCALE
  5
1C9
102
{ACAD_REACTORS
330
99
102
}
330
99
100
AcDbScale
 70
     0
300
1/128" = 1'-0"
140
0.0078125
141
12.0
290
     0
  0
SCALE
  5
1CA
102
{ACAD_REACTORS
330
99
102
}
330
99
100
AcDbScale
 70
     0
300
1/64" = 1'-0"
140
0.015625
141
12.0
290
     0
  0
SCALE
  5
1CB
102
{ACAD_REACTORS
330
99
102
}
330
99
100
AcDbScale
 70
     0
300
1/32" = 1'-0"
140
0.03125
141
12.0
290
     0
  0
SCALE
  5
1CC
102
{ACAD_REACTORS
330
99
102
}
330
99
100
AcDbScale
 70
     0
300
1/16" = 1'-0"
140
0.0625
141
12.0
290
     0
  0
SCALE
  5
1CD
102
{ACAD_REACTORS
330
99
102
}
330
99
100
AcDbScale
 70
     0
300
3/32" = 1'-0"
140
0.09375
141
12.0
290
     0
  0
SCALE
  5
1CE
102
{ACAD_REACTORS
330
99
102
}
330
99
100
AcDbScale
 70
     0
300
1/8" = 1'-0"
140
0.125
141
12.0
290
     0
  0
SCALE
  5
1CF
102
{ACAD_REACTORS
330
99
102
}
330
99
100
AcDbScale
 70
     0
300
3/16" = 1'-0"
140
0.1875
141
12.0
290
     0
  0
SCALE
  5
1D0
102
{ACAD_REACTORS
330
99
102
}
330
99
100
AcDbScale
 70
     0
300
1/4" = 1'-0"
140
0.25
141
12.0
290
     0
  0
SCALE
  5
1D1
102
{ACAD_REACTORS
330
99
102
}
330
99
100
AcDbScale
 70
     0
300
3/8" = 1'-0"
140
0.375
141
12.0
290
     0
  0
SCALE
  5
1D2
102
{ACAD_REACTORS
330
99
102
}
330
99
100
AcDbScale
 70
     0
300
1/2" = 1'-0"
140
0.5
141
12.0
290
     0
  0
SCALE
  5
1D3
102
{ACAD_REACTORS
330
99
102
}
330
99
100
AcDbScale
 70
     0
300
3/4" = 1'-0"
140
0.75
141
12.0
290
     0
  0
SCALE
  5
1D4
102
{ACAD_REACTORS
330
99
102
}
330
99
100
AcDbScale
 70
     0
300
1" = 1'-0"
140
1.0
141
12.0
290
     0
  0
SCALE
  5
1D5
102
{ACAD_REACTORS
330
99
102
}
330
99
100
AcDbScale
 70
     0
300
1-1/2" = 1'-0"
140
1.5
141
12.0
290
     0
  0
SCALE
  5
1D6
102
{ACAD_REACTORS
330
99
102
}
330
99
100
AcDbScale
 70
     0
300
3" = 1'-0"
140
3.0
141
12.0
290
     0
  0
SCALE
  5
1D7
102
{ACAD_REACTORS
330
99
102
}
330
99
100
AcDbScale
 70
     0
300
6" = 1'-0"
140
6.0
141
12.0
290
     0
  0
SCALE
  5
1D8
102
{ACAD_REACTORS
330
99
102
}
330
99
100
AcDbScale
 70
     0
300
1'-0" = 1'-0"
140
12.0
141
12.0
290
     0
  0
TABLESTYLE
  5
243
102
{ACAD_REACTORS
330
92
102
}
330
92
100
AcDbTableStyle
  3
Standard
 70
     0
 71
     0
 40
0.06
 41
0.06
280
     0
281
     0
  7
Standard
140
0.18
170
     2
 62
     0
 63
     7
283
     0
 90
      512
 91
        0
  1

274
    -2
284
     1
 64
     0
275
    -2
285
     1
 65
     0
276
    -2
286
     1
 66
     0
277
    -2
287
     1
 67
     0
278
    -2
288
     1
 68
     0
279
    -2
289
     1
 69
     0
  7
Standard
140
0.25
170
     5
 62
     0
 63
     7
283
     0
 90
      512
 91
        0
  1

274
    -2
284
     1
 64
     0
275
    -2
285
     1
 65
     0
276
    -2
286
     1
 66
     0
277
    -2
287
     1
 67
     0
278
    -2
288
     1
 68
     0
279
    -2
289
     1
 69
     0
  7
Standard
140
0.18
170
     5
 62
     0
 63
     7
283
     0
 90
      512
 91
        0
  1

274
    -2
284
     1
 64
     0
275
    -2
285
     1
 65
     0
276
    -2
286
     1
 66
     0
277
    -2
287
     1
 67
     0
278
    -2
288
     1
 68
     0
279
    -2
289
     1
 69
     0
  0
VISUALSTYLE
  5
2F
102
{ACAD_REACTORS
330
2A
102
}
330
2A
100
AcDbVisualStyle
  2
2dWireframe
 70
     4
 71
     0
 72
     2
 73
     0
 90
        0
 40
-0.6
 41
-30.0
 62
     5
 63
     7
 74
     1
 91
        4
 64
     7
 65
   257
 75
     1
175
     1
 42
1.0
 92
        0
 66
   257
 43
1.0
 76
     1
 77
     6
 78
     2
 67
     7
 79
     5
170
     0
171
     0
290
     1
174
     0
 93
        1
 44
0.0
173
     0
291
     1
 45
0.0
  0
VISUALSTYLE
  5
31
102
{ACAD_REACTORS
330
2A
102
}
330
2A
100
AcDbVisualStyle
  2
3D Hidden
 70
     6
 71
     1
 72
     2
 73
     2
 90
        0
 40
-0.6
 41
-30.0
 62
     5
 63
     7
 74
     2
 91
        2
 64
     7
 65
   257
 75
     2
175
     1
 42
40.0
 92
        0
 66
   257
 43
1.0
 76
     1
 77
     6
 78
     2
 67
     7
 79
     3
170
     0
171
     0
290
     1
174
     0
 93
        1
 44
0.0
173
     0
291
     1
 45
0.0
  0
VISUALSTYLE
  5
30
102
{ACAD_REACTORS
330
2A
102
}
330
2A
100
AcDbVisualStyle
  2
3dWireframe
 70
     5
 71
     0
 72
     2
 73
     0
 90
        0
 40
-0.6
 41
-30.0
 62
     5
 63
     7
 74
     1
 91
        4
 64
     7
 65
   257
 75
     1
175
     1
 42
1.0
 92
        0
 66
   257
 43
1.0
 76
     1
 77
     6
 78
     2
 67
     7
 79
     5
170
     0
171
     0
290
     1
174
     0
 93
        1
 44
0.0
173
     0
291
     1
 45
0.0
  0
VISUALSTYLE
  5
32
102
{ACAD_REACTORS
330
2A
102
}
330
2A
100
AcDbVisualStyle
  2
Basic
 70
     7
 71
     1
 72
     0
 73
     1
 90
        0
 40
-0.6
 41
-30.0
 62
     5
 63
     7
 74
     0
 91
        4
 64
     7
 65
   257
 75
     1
175
     1
 42
1.0
 92
        8
 66
     7
 43
1.0
 76
     1
 77
     6
 78
     2
 67
     7
 79
     5
170
     0
171
     0
290
     1
174
     0
 93
        1
 44
0.0
173
     0
291
     1
 45
0.0
  0
VISUALSTYLE
  5
36
102
{ACAD_REACTORS
330
2A
102
}
330
2A
100
AcDbVisualStyle
  2
Brighten
 70
    12
 71
     2
 72
     2
 73
     0
 90
        0
 40
-0.6
 41
-30.0
 62
     5
 63
     7
 74
     1
 91
        4
 64
     7
 65
   257
 75
     1
175
     1
 42
1.0
 92
        8
 66
     7
 43
1.0
 76
     1
 77
     6
 78
     2
 67
     7
 79
     5
170
     0
171
     0
290
     1
174
     0
 93
        1
 44
50.0
173
     0
291
     1
 45
0.0
  0
VISUALSTYLE
  5
3A
102
{ACAD_REACTORS
330
2A
102
}
330
2A
100
AcDbVisualStyle
  2
ColorChange
 70
    16
 71
     2
 72
     2
 73
     3
 90
        0
 40
-0.6
 41
-30.0
 62
     5
 63
     8
 74
     1
 91
        4
 64
     7
 65
   257
 75
     1
175
     1
 42
1.0
 92
        8
 66
     8
 43
1.0
 76
     1
 77
     6
 78
     2
 67
     7
 79
     5
170
     0
171
     0
290
     1
174
     0
 93
        1
 44
0.0
173
     0
291
     1
 45
0.0
  0
VISUALSTYLE
  5
34
102
{ACAD_REACTORS
330
2A
102
}
330
2A
100
AcDbVisualStyle
  2
Conceptual
 70
     9
 71
     3
 72
     2
 73
     0
 90
        0
 40
-0.6
 41
-30.0
 62
     5
 63
     7
 74
     2
 91
        2
 64
     7
 65
   257
 75
     1
175
     1
 42
40.0
 92
        8
 66
     7
 43
1.0
 76
     1
 77
     6
 78
     2
 67
     7
 79
     3
170
     0
171
     0
290
     1
174
     0
 93
        1
 44
0.0
173
     0
291
     1
 45
0.0
  0
VISUALSTYLE
  5
35
102
{ACAD_REACTORS
330
2A
102
}
330
2A
100
AcDbVisualStyle
  2
Dim
 70
    11
 71
     2
 72
     2
 73
     0
 90
        0
 40
-0.6
 41
-30.0
 62
     5
 63
     7
 74
     1
 91
        4
 64
     7
 65
   257
 75
     1
175
     1
 42
1.0
 92
        8
 66
     7
 43
1.0
 76
     1
 77
     6
 78
     2
 67
     7
 79
     5
170
     0
171
     0
290
     1
174
     0
 93
        1
 44
-50.0
173
     0
291
     1
 45
0.0
  0
VISUALSTYLE
  5
39
102
{ACAD_REACTORS
330
2A
102
}
330
2A
100
AcDbVisualStyle
  2
Facepattern
 70
    15
 71
     2
 72
     2
 73
     0
 90
        0
 40
-0.6
 41
-30.0
 62
     5
 63
     7
 74
     1
 91
        4
 64
     7
 65
   257
 75
     1
175
     1
 42
1.0
 92
        8
 66
     7
 43
1.0
 76
     1
 77
     6
 78
     2
 67
     7
 79
     5
170
     0
171
     0
290
     1
174
     0
 93
        1
 44
0.0
173
     0
291
     1
 45
0.0
  0
VISUALSTYLE
  5
2B
102
{ACAD_REACTORS
330
2A
102
}
330
2A
100
AcDbVisualStyle
  2
Flat
 70
     0
 71
     2
 72
     1
 73
     1
 90
        2
 40
-0.6
 41
30.0
 62
     5
 63
     7
 74
     0
 91
        4
 64
     7
 65
   257
 75
     1
175
     1
 42
1.0
 92
        8
 66
     7
 43
1.0
 76
     1
 77
     6
 78
     2
 67
     7
 79
     5
170
     0
171
     0
290
     1
174
     0
 93
       13
 44
0.0
173
     0
291
     1
 45
0.0
  0
VISUALSTYLE
  5
2C
102
{ACAD_REACTORS
330
2A
102
}
330
2A
100
AcDbVisualStyle
  2
FlatWithEdges
 70
     1
 71
     2
 72
     1
 73
     1
 90
        2
 40
-0.6
 41
30.0
 62
     5
 63
     7
 74
     1
 91
        4
 64
     7
 65
   257
 75
     1
175
     1
 42
1.0
 92
        0
 66
   257
 43
1.0
 76
     1
 77
     6
 78
     2
 67
     7
 79
     5
170
     0
171
     0
290
     1
174
     0
 93
       13
 44
0.0
173
     0
291
     1
 45
0.0
  0
VISUALSTYLE
  5
2D
102
{ACAD_REACTORS
330
2A
102
}
330
2A
100
AcDbVisualStyle
  2
Gouraud
 70
     2
 71
     2
 72
     2
 73
     1
 90
        2
 40
-0.6
 41
30.0
 62
     5
 63
     7
 74
     0
 91
        4
 64
     7
 65
   257
 75
     1
175
     1
 42
1.0
 92
        0
 66
     7
 43
1.0
 76
     1
 77
     6
 78
     2
 67
     7
 79
     5
170
     0
171
     0
290
     1
174
     0
 93
       13
 44
0.0
173
     0
291
     1
 45
0.0
  0
VISUALSTYLE
  5
2E
102
{ACAD_REACTORS
330
2A
102
}
330
2A
100
AcDbVisualStyle
  2
GouraudWithEdges
 70
     3
 71
     2
 72
     2
 73
     1
 90
        2
 40
-0.6
 41
30.0
 62
     5
 63
     7
 74
     1
 91
        4
 64
     7
 65
   257
 75
     1
175
     1
 42
1.0
 92
        0
 66
   257
 43
1.0
 76
     1
 77
     6
 78
     2
 67
     7
 79
     5
170
     0
171
     0
290
     1
174
     0
 93
       13
 44
0.0
173
     0
291
     1
 45
0.0
  0
VISUALSTYLE
  5
38
102
{ACAD_REACTORS
330
2A
102
}
330
2A
100
AcDbVisualStyle
  2
Linepattern
 70
    14
 71
     2
 72
     2
 73
     0
 90
        0
 40
-0.6
 41
-30.0
 62
     5
 63
     7
 74
     1
 91
        4
 64
     7
 65
   257
 75
     7
175
     7
 42
1.0
 92
        8
 66
     7
 43
1.0
 76
     1
 77
     6
 78
     2
 67
     7
 79
     5
170
     0
171
     0
290
     1
174
     0
 93
        1
 44
0.0
173
     0
291
     1
 45
0.0
  0
VISUALSTYLE
  5
33
102
{ACAD_REACTORS
330
2A
102
}
330
2A
100
AcDbVisualStyle
  2
Realistic
 70
     8
 71
     2
 72
     2
 73
     0
 90
        0
 40
-0.6
 41
-30.0
 62
     5
 63
     7
 74
     1
 91
        0
 64
     7
 65
   257
 75
     1
175
     1
 42
1.0
 92
        8
 66
     8
 43
1.0
 76
     1
 77
     6
 78
     2
 67
     7
 79
     5
170
     0
171
     0
290
     1
174
     0
 93
       13
 44
0.0
173
     0
291
     1
 45
0.0
  0
VISUALSTYLE
  5
37
102
{ACAD_REACTORS
330
2A
102
}
330
2A
100
AcDbVisualStyle
  2
Thicken
 70
    13
 71
     2
 72
     2
 73
     0
 90
        0
 40
-0.6
 41
-30.0
 62
     5
 63
     7
 74
     1
 91
        4
 64
     7
 65
   257
 75
     1
175
     1
 42
1.0
 92
       12
 66
     7
 43
1.0
 76
     1
 77
     6
 78
     2
 67
     7
 79
     5
170
     0
171
     0
290
     1
174
     0
 93
        1
 44
0.0
173
     0
291
     1
 45
0.0
  0
DICTIONARYVAR
  5
261
102
{ACAD_REACTORS
330
59
102
}
330
59
100
DictionaryVariables
280
     0
  1
1:1
  0
DICTIONARYVAR
  5
244
102
{ACAD_REACTORS
330
59
102
}
330
59
100
DictionaryVariables
280
     0
  1

  0
DICTIONARYVAR
  5
1DB
102
{ACAD_REACTORS
330
59
102
}
330
59
100
DictionaryVariables
280
     0
  1
2
  0
DICTIONARYVAR
  5
245
102
{ACAD_REACTORS
330
59
102
}
330
59
100
DictionaryVariables
280
     0
  1
1
  0
ENDSEC
  0
EOF
